(Classical, Baroque) Johann Sebastian Bach - Une cantate imaginaire - Nathalie Stutzmann, Orfeo 55 - 2012, FLAC (image+.cue) lossless


 

[Цитировать]

Johann Sebastian Bach - Une cantate imaginaire - Nathalie Stutzmann, Orfeo 55
Жанр: Classical, Baroque
Страна-производитель диска: Germany
Год издания диска: 2012
Издатель (лейбл): Deutsche Grammophon
Номер по каталогу: 481 0062
Дата записи: 2012
Аудиокодек: FLAC
Тип рипа: image+.cue
Битрейт аудио: lossless
Продолжительность: 79:47
Источник: собственный рип
Наличие сканов в содержимом раздачи: да
Треклист:
Johann Sebastian Bach (1685-1750)
[1] 'Am Abend aber desselbigen Sabbats', BWV 42 - Sinfonia
[2] 'Freue dich, erlöste Schar!', BWV 30 - 'Kommt, ihr angefocht'nen Sünder'
[3] 'Ich freue mich in dir', BWV 133 - 'Getrost!'
[4] Suite No.3 in D major, BWV 1068 - Aria
[5] Gottfried Heinrich Stölzel: 'Bist du bei mir', BWV 508 (attr. J.S.Bach)
[6] 'Ich liebe den Höchsten von ganzem Gemüte', BWV 174 - Sinfonia
[7] 'Ich hatte viel Bekümmernis', BWV 21 - Sinfonia
[8] 'Wer mich liebet, der wird mein Wort halten', BWV 74 - 'Nichts kann mich erretten'
[9] 'Allein zu dir, Herr Jesu Christ', BWV 33 - 'Wie furchtsam wankten meine Schritte
[10] 'Gleichwie der Regen und Schnee vom Himmel fällt', BWV 18 - Sinfonia
[11] St. Matthew Passion, BWV 244 - Part 2, No.39 'Erbarme dich'
[12] 'Christ lag in Todes Banden', BWV 4 - Sinfonia
[13] 'Gott soll allein mein Herze haben', BWV 169 - 'Stirb in mir'
[14] 'Gloria in excelsis Deo', BWV 191 - 'Gloria in excelsis Deo'
[15] 'Ich bin ein guter Hirt', BWV 85 - 'Jesus ist ein guter Hirt'
[16] 'Himmelskönig, sei willkommen', BWV 182 - Sinfonia
[17] 'Vergiss mein nicht, mein allerliebster Gott', BWV 505
[18] 'Herz und Mund und Tat und Leben', BWV 147 - 'Jesus bleibet meine Freude'
Исполнители:
Nathalie Stutzmann contralto & direction
Orfeo 55
Mikaeli Kammarkör
(14,18)

Лог создания рипа

Exact Audio Copy V1.0 beta 3 from 29. August 2011
EAC extraction logfile from 16. August 2013, 16:13
Nathalie Stutzmann, Orfeo 55 / Bach - Une cantate imaginaire
Used drive : HL-DT-STDVDRRW GWA-4164B Adapter: 5 ID: 0
Read mode : Secure
Utilize accurate stream : Yes
Defeat audio cache : Yes
Make use of C2 pointers : No
Read offset correction : 102
Overread into Lead-In and Lead-Out : No
Fill up missing offset samples with silence : Yes
Delete leading and trailing silent blocks : No
Null samples used in CRC calculations : Yes
Used interface : Native Win32 interface for Win NT & 2000
Used output format : User Defined Encoder
Selected bitrate : 896 kBit/s
Quality : High
Add ID3 tag : No
Command line compressor : C:\Program Files\Exact Audio Copy\FLAC\FLAC.EXE
Additional command line options : -V -8 %source%
TOC of the extracted CD
Track | Start | Length | Start sector | End sector
---------------------------------------------------------
1 | 0:00.00 | 5:09.18 | 0 | 23192
2 | 5:09.18 | 4:40.40 | 23193 | 44232
3 | 9:49.58 | 3:42.11 | 44233 | 60893
4 | 13:31.69 | 5:24.02 | 60894 | 85195
5 | 18:55.71 | 3:43.64 | 85196 | 101984
6 | 22:39.60 | 5:29.60 | 101985 | 126719
7 | 28:09.45 | 2:57.66 | 126720 | 140060
8 | 31:07.36 | 5:01.49 | 140061 | 162684
9 | 36:09.10 | 9:26.35 | 162685 | 205169
10 | 45:35.45 | 3:08.69 | 205170 | 219338
11 | 48:44.39 | 7:01.37 | 219339 | 250950
12 | 55:46.01 | 1:40.13 | 250951 | 258463
13 | 57:26.14 | 4:41.01 | 258464 | 279539
14 | 62:07.15 | 5:30.25 | 279540 | 304314
15 | 67:37.40 | 3:24.69 | 304315 | 319683
16 | 71:02.34 | 1:55.14 | 319684 | 328322
17 | 72:57.48 | 2:48.73 | 328323 | 340995
18 | 75:46.46 | 4:00.34 | 340996 | 359029
Range status and errors
Selected range
Filename C:\temp\Bach - Une cantate imaginaire (Nathalie Stutzmann, Orfeo 55)\Bach - Une cantate imaginaire.wav
Peak level 100.0 %
Extraction speed 2.8 X
Range quality 99.9 %
Test CRC D345C69C
Copy CRC D345C69C
Copy OK
No errors occurred
AccurateRip summary
Track 1 accurately ripped (confidence 1) [16585A98] (AR v1)
Track 2 accurately ripped (confidence 1) [09F97F0D] (AR v1)
Track 3 accurately ripped (confidence 1) [AFEA9B22] (AR v1)
Track 4 accurately ripped (confidence 1) [BF7D55B7] (AR v1)
Track 5 accurately ripped (confidence 1) [B54FC7DC] (AR v1)
Track 6 accurately ripped (confidence 1) [293DEA7F] (AR v1)
Track 7 accurately ripped (confidence 1) [34545DB7] (AR v1)
Track 8 accurately ripped (confidence 1) [A4450F5D] (AR v1)
Track 9 accurately ripped (confidence 1) [301D39C7] (AR v1)
Track 10 accurately ripped (confidence 1) [5BA6D902] (AR v1)
Track 11 accurately ripped (confidence 1) [BE30B764] (AR v1)
Track 12 accurately ripped (confidence 1) [19CC6F3F] (AR v1)
Track 13 accurately ripped (confidence 1) [B3C98A61] (AR v1)
Track 14 accurately ripped (confidence 1) [75B721D5] (AR v1)
Track 15 accurately ripped (confidence 1) [B8AE076D] (AR v1)
Track 16 accurately ripped (confidence 1) [94CFADE9] (AR v1)
Track 17 accurately ripped (confidence 1) [9AA88978] (AR v1)
Track 18 accurately ripped (confidence 1) [42C94C69] (AR v1)
All tracks accurately ripped
End of status report
==== Log checksum F5CD48B36E624A017DB9D0BB6A6C412A8BBF84E569AE90BE7843DDD53E2A7F70 ====



Показать сообщения:    

Текущее время: 06-Дек 17:11

Часовой пояс: UTC + 3


Вы не можете начинать темы
Вы не можете отвечать на сообщения
Вы не можете редактировать свои сообщения
Вы не можете удалять свои сообщения
Вы не можете голосовать в опросах
Вы не можете прикреплять файлы к сообщениям
Вы не можете скачивать файлы