(Classical) [LP] [24/48] Franz Liszt - Etudes D'Apres Niccolo Paganini. Hungarian Rhapsodies (Josef Bulva-piano) - 1967, FLAC (image+.cue)


Статистика раздачи [Обновить пиров]
Размер:  426 MB   |    Зарегистрирован:  8 месяцев 23 дня   |    Скачан:  0 раз

Полного источника не было: Никогда

 
   
 
 
 

[Цитировать]

Franz Liszt - Etudes D'Apres Niccolo Paganini. Hungarian Rhapsodies (Josef Bulva-piano)
Жанр: Classical
Год выпуска: 1967
Лейбл: Supraphon
Страна-производитель: Chechoslovakia
Аудио кодек: FLAC
Тип рипа: image+.cue
Формат записи: 32/192
Формат раздачи: 24/48
Продолжительность: 41.01 min
Треклист:
Franz Liszt - Etudes D'Apres Niccolo Paganini. Hungarian Rhapsodies
01. Andante non troppo lento
02. Andante.Andantino capriccioso
03. La Campanella.Allegretto
04. Vivo
05. Allegretto
06. Quasi presto
07. Quasi adagio,alticramente.Andantino.Allegretto.Presto
08. Andante.Allegretto.Tempo I
09. Tempo guisto.Presto.Andante.Allegro.Presto
Josef Bulva - piano
Источник оцифровки: автором раздачи
Код класса состояния винила: NM
Устройство воспроизведения: Электроника ЭП-017С
Головка звукоснимателя: Audio-Technica AT95
Предварительный усилитель: Бриг-001
АЦП: VIA HD audio device
Программа-оцифровщик: Izotope RX III Advanced
Обработка: Manual

Спектр+АЧХ+Уровень записи

Back & Disc

Dynamic Range

foobar2000 1.1.10 / Dynamic Range Meter 1.1.1
log date: 2014-10-25 15:32:10
--------------------------------------------------------------------------------
Analyzed: Franz Liszt - Венгерские Рапсодии / Franz Liszt - Паганинские Этюды - Венгерские Рапсодии
--------------------------------------------------------------------------------
DR Peak RMS Duration Track
--------------------------------------------------------------------------------
DR10 -1.37 dB -14.81 dB 4:22 ?-Quasi adagio,alticramente.Andantino.Allegretto.Presto
DR10 -1.63 dB -15.86 dB 3:40 ?-Andante.Allegretto.Tempo I
--------------------------------------------------------------------------------
Number of tracks: 2
Official DR value: DR10
Samplerate: 48000 Hz
Channels: 2
Bits per sample: 24
Bitrate: 1388 kbps
Codec: FLAC
================================================================================
--------------------------------------------------------------------------------
Analyzed: Franz Liszt - Паганинские Этюды / Franz Liszt - Паганинские Этюды - Венгерские Рапсодии
--------------------------------------------------------------------------------
DR Peak RMS Duration Track
--------------------------------------------------------------------------------
DR10 -0.48 dB -13.24 dB 5:05 ?-Andante non troppo lento
DR10 0.00 dB -14.02 dB 6:20 ?-Andante.Andantino capriccioso
DR10 -0.40 dB -14.82 dB 5:22 ?-La Campanella.Allegretto
DR9 -0.64 dB -12.61 dB 2:06 ?-Vivo
DR10 -0.59 dB -13.60 dB 2:39 ?-Allegretto
DR10 -0.01 dB -14.35 dB 5:03 ?-Quasi presto
--------------------------------------------------------------------------------
Number of tracks: 6
Official DR value: DR10
Samplerate: 48000 Hz
Channels: 2
Bits per sample: 24
Bitrate: 1388 kbps
Codec: FLAC
==============================================================
240
Заменено головка AT91 на AT95
[teatrix.ru].t17635.torrent 
Торрент: Зарегистрирован [ 2016-03-17 00:52 ] · 6EAA2BB959D0B58DA849358BB9001950EA5C93C2

Скачать .torrent

Скачать

18 KB

Статус: проверено
Скачан: 0 раз
Размер: 426 MB
terms.php



Быстрый ответ

Имя:

      
Для отправки сообщений необходимо включить JavaScript
Показать сообщения:    

Текущее время: 09-Дек 20:28

Часовой пояс: UTC + 3


Вы можете начинать темы
Вы можете отвечать на сообщения
Вы не можете редактировать свои сообщения
Вы не можете удалять свои сообщения
Вы не можете голосовать в опросах
Вы не можете прикреплять файлы к сообщениям
Вы можете скачивать файлы