(Vocal/Instrumental/Baroque) Ensemble L Amoroso - Le Tresor d Orphee (Caroline Pelon - Guido Balestracci 2003) - 2004, APE (image+.cue) lossless


 

[Цитировать]

Ensemble L Amoroso - Le Tresor d Orphee (Caroline Pelon - Guido Balestracci 2003)
Жанр: Vocal/Instrumental/Barocco
Страна-производитель диска: France
Год издания диска: 2004
Издатель (лейбл): Harmonia Mundi
Номер по каталогу: ZZT 040501
Дата записи: 2003
Аудиокодек: APE
Тип рипа: image+.cue
Битрейт аудио: lossless
Продолжительность: 74'45
Источник: собственный рип
Наличие сканов в содержимом раздачи: да
Треклист:
01. "Fantaisie de violes (Louis Couperin)"
02. "N'esperez plus mes yeux (Boesset)"
03. "Allemande fugue à trois violes (Du Mont)"
04. "Allemande grave à trois violes (Du Mont)"
05. "Cruel tyran de mes désirs (Boesset)"
06. "Neufiesme Fantasie (Métru)"
07. "Un jour l'amoureuse Sylvie (Guédron)"
08. "Pavane à 3 violes (Du Mont)"
09. "Fantaisie à quatre pour les violes (Moulinié)"
10. "Prélude (Vallet)"
11. "Si je languis d'un martire incogneu (Courville)"
12. "Première Fantaisie (Le Jeune)"
13. "Fantaisies ( de Caurroy)"
14. "Symphonie a 4 viol (Du Mont)"
15. "Fugue 6iè e Caprice sur le mesme sujet (Roberday)"
16. "Je suis déshéritée , à 6. (Le Jeune)"
17. "Quarante deuxième Fantaisie (Du Caurroy)"
18. "Je suis déshéritée, à 6, (Le Jeune)"
19. "Je n'ai jamais parlé de mon amour extresme (Du Mont)"
20. "Bona sera come stai (Le Jeune)"
Исполнители:
Ensemble L'Amoroso
- Caroline Pelon, sopran
- Guido Balestracci, dessus de viole
- Silvia Tecardi, ténor de viole
- Martin Zeller, basse de viole
- Nicola Dal Maso, violone
- Thomas Boysen, luth et théorbe
- Massimiliano Raschietti, clavesin et orgue
Guido Balestracci, direction

Лог создания рипа

Exact Audio Copy V1.0 beta 3 from 29. August 2011
EAC extraction logfile from 18. September 2013, 18:41
Ensemble L'Amoroso / Le Trésor d' Orphée, Balestracci 2003
Used drive : TSSTcorpCDDVDW SH-216AB Adapter: 0 ID: 1
Read mode : Secure
Utilize accurate stream : Yes
Defeat audio cache : Yes
Make use of C2 pointers : No
Read offset correction : 6
Overread into Lead-In and Lead-Out : No
Fill up missing offset samples with silence : Yes
Delete leading and trailing silent blocks : No
Null samples used in CRC calculations : Yes
Used interface : Native Win32 interface for Win NT & 2000
Used output format : Monkey's Audio Lossless Encoder
Selected bitrate : High Lossless Compression
Quality : High
Add ID3 tag : Yes
Command line compressor : K:\Program Files (x86)\Exact Audio Copy\Monkeys Audio\Monkey's Audio\MAC.exe
Additional command line options : -6 -V -T "ARTIST=%artist%" -T "TITLE=%title%" -T "ALBUM=%albumtitle%" -T "DATE=%year%" -T "TRACKNUMBER=%tracknr%" -T "GENRE=%genre%" -T "COMMENT=%comment%" -T "BAND=%albuminterpret%" -T "ALBUMARTIST=%albuminterpret%" -T "COMPOSER=%composer%" %haslyrics%--tag-from-file=LYRICS="%lyricsfile%"%haslyrics% -T "DISCNUMBER=%cdnumber%" -T "TOTALDISCS=%totalcds%" -T "TOTALTRACKS=%numtracks%" %hascover%--picture="%coverfile%"%hascover% %source% -o %dest%
TOC of the extracted CD
Track | Start | Length | Start sector | End sector
---------------------------------------------------------
1 | 0:00.00 | 3:13.61 | 0 | 14535
2 | 3:13.61 | 6:24.63 | 14536 | 43398
3 | 9:38.49 | 1:50.34 | 43399 | 51682
4 | 11:29.08 | 5:10.23 | 51683 | 74955
5 | 16:39.31 | 3:41.57 | 74956 | 91587
6 | 20:21.13 | 2:57.25 | 91588 | 104887
7 | 23:18.38 | 2:43.45 | 104888 | 117157
8 | 26:02.08 | 4:42.21 | 117158 | 138328
9 | 30:44.29 | 4:24.26 | 138329 | 158154
10 | 35:08.55 | 1:20.69 | 158155 | 164223
11 | 36:29.49 | 2:16.68 | 164224 | 174491
12 | 38:46.42 | 6:23.23 | 174492 | 203239
13 | 45:09.65 | 6:42.06 | 203240 | 233395
14 | 51:51.71 | 2:13.55 | 233396 | 243425
15 | 54:05.51 | 5:02.32 | 243426 | 266107
16 | 59:08.08 | 1:56.59 | 266108 | 274866
17 | 61:04.67 | 1:58.37 | 274867 | 283753
18 | 63:03.29 | 3:01.06 | 283754 | 297334
19 | 66:04.35 | 7:23.24 | 297335 | 330583
20 | 73:27.59 | 1:17.20 | 330584 | 336378
Range status and errors
Selected range
Filename I:\Foobar-EAC\Ensemble L'Amoroso - Le Trésor d' Orphée, Balestracci 2003.wav
Peak level 100.0 %
Extraction speed 3.3 X
Range quality 100.0 %
Test CRC 26C558CB
Copy CRC 26C558CB
Copy OK
No errors occurred
AccurateRip summary
Track 1 accurately ripped (confidence 3) [B27079BF] (AR v2)
Track 2 accurately ripped (confidence 3) [E129329A] (AR v2)
Track 3 accurately ripped (confidence 3) [5EE5E83F] (AR v2)
Track 4 accurately ripped (confidence 3) [59DB91C4] (AR v2)
Track 5 accurately ripped (confidence 3) [94BA577F] (AR v2)
Track 6 accurately ripped (confidence 3) [ACDBBC37] (AR v2)
Track 7 accurately ripped (confidence 3) [2D698041] (AR v2)
Track 8 accurately ripped (confidence 3) [25EF54F2] (AR v2)
Track 9 accurately ripped (confidence 3) [959D6D3C] (AR v2)
Track 10 accurately ripped (confidence 3) [DB097212] (AR v2)
Track 11 accurately ripped (confidence 3) [16122F06] (AR v2)
Track 12 accurately ripped (confidence 3) [AC4FCE87] (AR v2)
Track 13 accurately ripped (confidence 3) [64F64E2D] (AR v2)
Track 14 accurately ripped (confidence 3) [0D688972] (AR v2)
Track 15 accurately ripped (confidence 3) [4F9B1A0D] (AR v2)
Track 16 accurately ripped (confidence 3) [A9B2754C] (AR v2)
Track 17 accurately ripped (confidence 3) [09DA5F93] (AR v2)
Track 18 accurately ripped (confidence 3) [ECAB540E] (AR v2)
Track 19 accurately ripped (confidence 3) [EC244F2B] (AR v2)
Track 20 accurately ripped (confidence 3) [DB827D0E] (AR v2)
All tracks accurately ripped
End of status report
==== Log checksum A1575C9DB6E097168B439B5D08BA3C89D99603240379092B2D2648634473AFE6 ====

Лог проверки качества

REM GENRE Baroque
REM DATE 2004
REM DISCID 06118514
REM COMMENT "ExactAudioCopy v1.0b3"
PERFORMER "Ensemble L'Amoroso"
TITLE "Le Trésor d' Orphée, Balestracci 2003"
FILE "Ensemble L'Amoroso - Le Trésor d' Orphée, Balestracci 2003.ape" WAVE
TRACK 01 AUDIO
TITLE "Fantaisie de violes (Louis Couperin)"
PERFORMER "Ensemble L'Amoroso"
INDEX 01 00:00:00
TRACK 02 AUDIO
TITLE "N'esperez plus mes yeux (Boesset)"
PERFORMER "Ensemble L'Amoroso"
INDEX 00 03:09:74
INDEX 01 03:13:61
TRACK 03 AUDIO
TITLE "Allemande fugue à trois violes (Du Mont)"
PERFORMER "Ensemble L'Amoroso"
INDEX 00 09:34:52
INDEX 01 09:38:49
TRACK 04 AUDIO
TITLE "Allemande grave à trois violes (Du Mont)"
PERFORMER "Ensemble L'Amoroso"
INDEX 01 11:29:08
TRACK 05 AUDIO
TITLE "Cruel tyran de mes désirs (Boesset)"
PERFORMER "Ensemble L'Amoroso"
INDEX 00 16:31:50
INDEX 01 16:39:31
TRACK 06 AUDIO
TITLE "Neufiesme Fantasie (Métru)"
PERFORMER "Ensemble L'Amoroso"
INDEX 01 20:21:13
TRACK 07 AUDIO
TITLE "Un jour l'amoureuse Sylvie (Guédron)"
PERFORMER "Ensemble L'Amoroso"
INDEX 01 23:18:38
TRACK 08 AUDIO
TITLE "Pavane à 3 violes (Du Mont)"
PERFORMER "Ensemble L'Amoroso"
INDEX 00 25:56:40
INDEX 01 26:02:08
TRACK 09 AUDIO
TITLE "Fantaisie à quatre pour les violes (Moulinié)"
PERFORMER "Ensemble L'Amoroso"
INDEX 00 30:42:02
INDEX 01 30:44:29
TRACK 10 AUDIO
TITLE "Prélude (Vallet)"
PERFORMER "Ensemble L'Amoroso"
INDEX 00 35:04:23
INDEX 01 35:08:55
TRACK 11 AUDIO
TITLE "Si je languis d'un martire incogneu (Courville)"
PERFORMER "Ensemble L'Amoroso"
INDEX 01 36:29:49
TRACK 12 AUDIO
TITLE "Première Fantaisie (Le Jeune)"
PERFORMER "Ensemble L'Amoroso"
INDEX 00 38:44:62
INDEX 01 38:46:42
TRACK 13 AUDIO
TITLE "Fantaisies ( de Caurroy)"
PERFORMER "Ensemble L'Amoroso"
INDEX 01 45:09:65
TRACK 14 AUDIO
TITLE "Symphonie a 4 viol (Du Mont)"
PERFORMER "Ensemble L'Amoroso"
INDEX 00 51:46:34
INDEX 01 51:51:71
TRACK 15 AUDIO
TITLE "Fugue 6iè e Caprice sur le mesme sujet (Roberday)"
PERFORMER "Ensemble L'Amoroso"
INDEX 01 54:05:51
TRACK 16 AUDIO
TITLE "Je suis déshéritée , à 6. (Le Jeune)"
PERFORMER "Ensemble L'Amoroso"
INDEX 00 59:04:52
INDEX 01 59:08:08
TRACK 17 AUDIO
TITLE "Quarante deuxième Fantaisie (Du Caurroy)"
PERFORMER "Ensemble L'Amoroso"
INDEX 01 61:04:67
TRACK 18 AUDIO
TITLE "Je suis déshéritée, à 6, (Le Jeune)"
PERFORMER "Ensemble L'Amoroso"
INDEX 01 63:03:29
TRACK 19 AUDIO
TITLE "Je n'ai jamais parlé de mon amour extresme (Du Mont)"
PERFORMER "Ensemble L'Amoroso"
INDEX 00 66:01:16
INDEX 01 66:04:35
TRACK 20 AUDIO
TITLE "Bona sera come stai (Le Jeune)"
PERFORMER "Ensemble L'Amoroso"
INDEX 00 73:24:13
INDEX 01 73:27:59



Показать сообщения:    

Текущее время: 03-Дек 09:48

Часовой пояс: UTC + 3


Вы не можете начинать темы
Вы не можете отвечать на сообщения
Вы не можете редактировать свои сообщения
Вы не можете удалять свои сообщения
Вы не можете голосовать в опросах
Вы не можете прикреплять файлы к сообщениям
Вы не можете скачивать файлы