Кинометры войны. Восточный коридор. (Максим Кривицкий) [2008, Документальный, кинематограф, DVDRip]


Статистика раздачи [Обновить пиров]
Размер:  390 MB   |    Зарегистрирован:  8 месяцев 18 дней   |    Скачан:  0 раз

Полного источника не было: Никогда

 
   
 
 
 

[Цитировать]

Кинометры войны. Восточный коридор.
Год выпуска: 2008
Страна: Беларусь
Жанр: Документальный, кинематограф
Продолжительность: 00:25:30
Перевод: Не требуется
Русские субтитры: нет
Режиссер: Максим Кривицкий

Описание: Судьба картины "Восточный коридор" - трагична. Достаточно сказать, что в 1967 году в Кишинёве прошел 7-ой кинофестиваль Прибалтийских республик, Беларуси и Молдавии. На котором фильм "Восточный коридор" был признан антихудожественным и снят с конкурса.
После этого о фильме забыли, на протяжении многих лет о нем никто не слышал, его никто не видел.
Режиссёр фильма – Валентин Виноградов – был уволен с киностудии, фактически, отстранен от кинематографа. А фильм "Восточный коридор" критики назвали "эстетизацией жестокости".
"Восточный коридор" действительно стоит особняком в ряду работ белорусских кинематографистов, снятых в то время.
Надо сказать, что первая работа Виноградова – "Письма живым" о Вере Хоружей был воспринят достаточно положительно. Даже жанр притчи, в котором его представил режиссёр, не раздражал. В верхах попросили снять фильм о войне. При работе над материалом совместно со сценаристом – Алесем Кучарой – были найдены весьма любопытные судьбы героев минского подполья.
Напомним, что судьба минского подполья была печальной. Почти все его участники были арестованы и казнены. Только немногим удалось спастись.
И создатели фильма хотели показать войну такой, какая она есть – не с точки зрения воюющей армии, а с точки зрения сопротивления оккупированных территорий.

Доп. информация: Релиз:
Благодарность: за предоставленный материал некто Андрей
за релиз: pmv
за постер: Verba96

качество: DVDRip
формат: AVI
Видео: 720x544 (1.32:1), 25 fps, XviD build 50 ~1999 kbps avg, 0.20 bit/pixel
Аудио: 48 kHz, MPEG Layer 3, 2 ch, ~128.00 kbps avg

Список выпусков/серий

1 серия

MediaInfo

Формат : AVI
Формат/Информация : Audio Video Interleave
Размер файла : 390 Мбайт
Продолжительность : 25 м.
Общий поток : 2138 Кбит/сек
Программа кодирования : VirtualDubMod 1.5.10.3 | www.virtualdub-fr.org || (build 2550/release)
Библиотека кодирования : VirtualDubMod build 2550/release
Видео
Идентификатор : 0
Формат : MPEG-4 Visual
Профиль формата : Advanced Simple@L5
Параметр BVOP формата : 2
Параметр QPel формата : Нет
Параметр GMC формата : Без точки перехода
Параметр матрицы формата : Default (H.263)
Идентификатор кодека : XVID
Идентификатор кодека/Подсказка : XviD
Продолжительность : 25 м.
Битрейт : 2000 Кбит/сек
Ширина : 720 пикселей
Высота : 544 пикселя
Соотношение сторон : 4:3
Частота кадров : 25,000 кадров/сек
Цветовое пространство : YUV
Субдискретизация насыщенности : 4:2:0
Битовая глубина : 8 бит
Тип развёртки : Прогрессивная
Метод сжатия : С потерями
Бит/(Пиксели*Кадры) : 0.204
Размер потока : 365 Мбайт (94%)
Библиотека кодирования : XviD 1.2.1 (UTC 2008-12-04)
Аудио
Идентификатор : 1
Формат : MPEG Audio
Версия формата : Version 1
Профиль формата : Layer 3
Идентификатор кодека : 55
Идентификатор кодека/Подсказка : MP3
Продолжительность : 25 м.
Вид битрейта : Постоянный
Битрейт : 128 Кбит/сек
Каналы : 2 канала
Частота : 48,0 КГц
Метод сжатия : С потерями
Размер потока : 23,4 Мбайт (6%)
Выравнивание : Соединение по промежуткам
Продолжительность промежутка : 40 мс. (1,00 видеокадр)
Время предзагрузки промежутка : 504 мс.
Библиотека кодирования : LAME3.99r
Настройки программы : -m s -V 4 -q 2 -lowpass 17 -b 128

Скриншоты


-
Сообщения из этой темы [1 шт.] были выделены в отдельную тему kino2012a [id: 24205718] (0)
Aids
[teatrix.ru].t17667.torrent 
Торрент: Зарегистрирован [ 2016-03-17 00:51 ] · 611F77214546DD206D7859C699500D843E5872C2

Скачать .torrent

Скачать

16 KB

Статус: проверено
Скачан: 0 раз
Размер: 390 MB
terms.php



Показать сообщения:    

Текущее время: 04-Дек 00:53

Часовой пояс: UTC + 3


Вы не можете начинать темы
Вы не можете отвечать на сообщения
Вы не можете редактировать свои сообщения
Вы не можете удалять свои сообщения
Вы не можете голосовать в опросах
Вы не можете прикреплять файлы к сообщениям
Вы можете скачивать файлы