Забытый сценарий. Еще о войне. (Максим Кривицкий) [2008, Документальный, кинематограф, DVDRip]


Статистика раздачи [Обновить пиров]
Размер:  401 MB   |    Зарегистрирован:  8 месяцев 24 дня   |    Скачан:  0 раз

Полного источника не было: Никогда

 
   
 
 
 

[Цитировать]

Забытый сценарий. Еще о войне.
Год выпуска: 2008
Страна: Беларусь
Жанр: Документальный, кинематограф
Продолжительность: 00:26:39
Перевод: Не требуется
Русские субтитры: нет
Режиссер: Максим Кривицкий

Описание: Документальный фильм "Забытый сценарий" рассказывает о том, как готовился к съемкам и снимался фильм "Еще о войне" (режиссер Петр Кривостаненко, 2004)...
Доп. информация: Релиз:
Благодарность за предоставленный материал некто Андрей
За релиз: pmv
За постер: Verba96

качество: DVDRip
формат: AVI
Видео: 720x544 (1.32:1), 25 fps, XviD MPEG-4 ~1999 kbps avg, 0.20 bit/pixel
Аудио: 48 kHz, MPEG Layer 3, 1 ch, ~96.00 kbps avg

Список выпусков/серий

1 серия

MediaInfo

Формат : AVI
Формат/Информация : Audio Video Interleave
Размер файла : 401 Мбайт
Продолжительность : 26 м.
Общий поток : 2105 Кбит/сек
Программа кодирования : VirtualDubMod 1.5.10.3 | www.virtualdub-fr.org || (build 2550/release)
Библиотека кодирования : VirtualDubMod build 2550/release
Видео
Идентификатор : 0
Формат : MPEG-4 Visual
Профиль формата : Advanced Simple@L5
Параметр BVOP формата : 2
Параметр QPel формата : Нет
Параметр GMC формата : Без точки перехода
Параметр матрицы формата : Default (H.263)
Режим смешивания : Сжатый битовый поток
Идентификатор кодека : XVID
Идентификатор кодека/Подсказка : XviD
Продолжительность : 26 м.
Битрейт : 2000 Кбит/сек
Ширина : 720 пикселей
Высота : 544 пикселя
Соотношение сторон : 4:3
Частота кадров : 25,000 кадров/сек
Цветовое пространство : YUV
Субдискретизация насыщенности : 4:2:0
Битовая глубина : 8 бит
Тип развёртки : Прогрессивная
Метод сжатия : С потерями
Бит/(Пиксели*Кадры) : 0.204
Размер потока : 381 Мбайт (95%)
Библиотека кодирования : XviD 1.2.1 (UTC 2008-12-04)
Аудио
Идентификатор : 1
Формат : MPEG Audio
Версия формата : Version 1
Профиль формата : Layer 3
Идентификатор кодека : 55
Идентификатор кодека/Подсказка : MP3
Продолжительность : 26 м.
Вид битрейта : Постоянный
Битрейт : 96,0 Кбит/сек
Каналы : 1 канал
Частота : 48,0 КГц
Метод сжатия : С потерями
Размер потока : 18,2 Мбайт (5%)
Выравнивание : Соединение по промежуткам
Продолжительность промежутка : 40 мс. (1,00 видеокадр)
Время предзагрузки промежутка : 504 мс.

Скриншоты

[teatrix.ru].t17668.torrent 
Торрент: Зарегистрирован [ 2016-03-17 00:51 ] · A62D9BFD4487C204B5A5AE49AFEE0C0D0875198F

Скачать .torrent

Скачать

16 KB

Статус: проверено
Скачан: 0 раз
Размер: 401 MB
terms.php



Показать сообщения:    

Текущее время: 10-Дек 06:08

Часовой пояс: UTC + 3


Вы не можете начинать темы
Вы не можете отвечать на сообщения
Вы не можете редактировать свои сообщения
Вы не можете удалять свои сообщения
Вы не можете голосовать в опросах
Вы не можете прикреплять файлы к сообщениям
Вы можете скачивать файлы