(Lied) Schubert - 17 Lieder - Barbara Bonney, Geoffrey Parsons - 2002, FLAC (image+.cue) lossless


 

[Цитировать]

Franz Schubert - 17 Lieder - Barbara Bonney, Geoffrey parsons
Жанр: Lied
Страна-производитель диска: Germany
Год издания диска: 2002
Издатель (лейбл): Elatus
Номер по каталогу: 09274 67412
Дата записи: 1994
Аудиокодек: FLAC
Тип рипа: image+.cue
Битрейт аудио: lossless
Продолжительность: 72:44
Источник: скачано с web
Важная информация: рип не мой, все благодарности оригинальному аплоудеру / Important Note: not my rip, all credits to the original uploader
Наличие сканов в содержимом раздачи: да
Треклист:
[01] Ave Maria, D839
[02] Ganymed, D544
[03] Kennst du das Land (Mignons Gesang), D321
[04] Heiss mich nicht reden, D877/2
[05] So lasst mich scheinen, D877 No. 3
[06] Nur wer die Sehnsucht kennt, D877/4
[07] Liebhaber in allen Gestalten, D558
[08] Heidenröslein, D257
[09] Nähe des Geliebten, D162
[10] Die Forelle, D550
[11] Auf dem Wasser zu singen, D774
[12] Im Abendrot, D799
[13] Ständchen 'Horch! Horch! die Lerch!', D889
[14] Du bist die Ruh D776
[15] Gretchen am Spinnrade, D118
[16] Gretchens Bitte D564
[17] Der Hirt auf dem Felsen, D965
Исполнители:
Barbara Bonney (soprano)
Geoffrey Parsons (piano)
Sharon Kam (clarinet) [Der Hirt auf dem Felsen]

Лог создания рипа

Exact Audio Copy V0.99 prebeta 4 from 23. January 2008
EAC extraction logfile from 23. June 2008, 23:33
Barbara Bonney, Geoffrey Parsons / Schubert Lieder
Used drive : LITE-ON DVDRW LH-20A1H Adapter: 1 ID: 1
Read mode : Secure
Utilize accurate stream : Yes
Defeat audio cache : Yes
Make use of C2 pointers : No
Read offset correction : 6
Overread into Lead-In and Lead-Out : Yes
Fill up missing offset samples with silence : Yes
Delete leading and trailing silent blocks : No
Null samples used in CRC calculations : Yes
Used interface : Native Win32 interface for Win NT & 2000
Used output format : User Defined Encoder
Selected bitrate : 768 kBit/s
Quality : High
Add ID3 tag : No
Command line compressor : C:\Program Files\Exact Audio Copy\FLAC\FLAC.EXE
Additional command line options : -6 -V -T "ARTIST=%a" -T "TITLE=%t" -T "ALBUM=%g" -T "DATE=%y" -T "TRACKNUMBER=%n" -T "GENRE=%m" -T "COMMENT=%e" %s -o %d
TOC of the extracted CD
Track | Start | Length | Start sector | End sector
---------------------------------------------------------
1 | 0:00.00 | 6:20.05 | 0 | 28504
2 | 6:20.05 | 4:19.52 | 28505 | 47981
3 | 10:39.57 | 4:29.08 | 47982 | 68164
4 | 15:08.65 | 3:57.30 | 68165 | 85969
5 | 19:06.20 | 3:28.02 | 85970 | 101571
6 | 22:34.22 | 3:27.63 | 101572 | 117159
7 | 26:02.10 | 2:01.65 | 117160 | 126299
8 | 28:04.00 | 1:56.07 | 126300 | 135006
9 | 30:00.07 | 3:42.70 | 135007 | 151726
10 | 33:43.02 | 2:19.65 | 151727 | 162216
11 | 36:02.67 | 3:42.03 | 162217 | 178869
12 | 39:44.70 | 4:06.20 | 178870 | 197339
13 | 43:51.15 | 4:20.70 | 197340 | 216909
14 | 48:12.10 | 4:27.32 | 216910 | 236966
15 | 52:39.42 | 4:16.10 | 236967 | 256176
16 | 56:55.52 | 4:11.15 | 256177 | 275016
17 | 61:06.67 | 11:36.55 | 275017 | 327271
Range status and errors
Selected range
Filename C:\Documents and Settings\suns\My Documents\Barbara Bonney, Geoffrey Parsons - Schubert Lieder.wav
Peak level 99.7 %
Range quality 99.9 %
Copy CRC 13C2294D
Copy OK
No errors occurred
AccurateRip summary
Track 1 not present in database
Track 2 not present in database
Track 3 not present in database
Track 4 not present in database
Track 5 not present in database
Track 6 not present in database
Track 7 not present in database
Track 8 not present in database
Track 9 not present in database
Track 10 not present in database
Track 11 not present in database
Track 12 not present in database
Track 13 not present in database
Track 14 not present in database
Track 15 not present in database
Track 16 not present in database
Track 17 not present in database
None of the tracks are present in the AccurateRip database
End of status report



Показать сообщения:    

Текущее время: 11-Дек 16:54

Часовой пояс: UTC + 3


Вы не можете начинать темы
Вы не можете отвечать на сообщения
Вы не можете редактировать свои сообщения
Вы не можете удалять свои сообщения
Вы не можете голосовать в опросах
Вы не можете прикреплять файлы к сообщениям
Вы не можете скачивать файлы