(Classical) Clement Janequin · Le Chant des Oyseaulx (Ensemble Clement Janequin), 1983, FLAC (tracks+.cue) lossless


 

[Цитировать]

Clement Janequin
Le chant des oyseaulx

Жанр: Classical
Страна-производитель диска: France
Год издания диска: 1983
Издатель (лейбл): Harmonia Mundi
Номер по каталогу: HMC 901099
Дата записи: июль 1982 (Studio 106, Maison de Radio France)
Аудиокодек: FLAC
Тип рипа: tracks+.cue
Битрейт аудио: lossless
Продолжительность: 00:45:05
Источник: скачано с what.cd
Наличие сканов в содержимом раздачи: нет
Исполнители: Ensemble Clément Janequin

Треклист:

01. Le Chant des Oyseaulx (5:28)
02. Toutes les nuictz (2:06)
03. J’atens le temps (1:49)
04. Il estoit une fillette (1:14)
05. Las on peult juger (Chanson de Janequin, Transcription pour luth de G. Morlaye) (4:17)
06. Ung jour Colin (0:52)
07. O doulx regard, o parler (3:04)
08. Le chant de l’alouette (2:42)
09. Quand contremont verras (1:37)
10. Hellas mon Dieu ton ire (2:37)
11. Ma peine n’est pas grande (1:21)
12. O mal d’aymer (2:43)
13. Herbes et fleurs (1:38)
14. L’aveuglé Dieu (A. de Rippe d’après Janequin) (2:41)
15. A ce joly moys de may (1:27)
16. Assouvy suis (2:03)
17. Quelqu’un me disoit l’aultre jour (2:26)
18. M’y levay ung matin (1:17)
19. M’Amye a eu de Dieu (1:44)
20. Le chant du rossignol (2:01)

Лог создания рипа:

Exact Audio Copy V1.0 beta 3 from 29. August 2011
EAC extraction logfile from 21. March 2012, 20:55
Ensemble Clément Janequin / Le Chant des Oyseaulx
Used drive : HL-DT-STDVDRAM GE20LU10 Adapter: 3 ID: 0
Read mode : Secure
Utilize accurate stream : Yes
Defeat audio cache : Yes
Make use of C2 pointers : No
Read offset correction : 667
Overread into Lead-In and Lead-Out : No
Fill up missing offset samples with silence : Yes
Delete leading and trailing silent blocks : No
Null samples used in CRC calculations : Yes
Used interface : Native Win32 interface for Win NT & 2000
Gap handling : Appended to previous track
Used output format : User Defined Encoder
Selected bitrate : 1024 kBit/s
Quality : High
Add ID3 tag : No
Command line compressor : C:\Programmi\Exact Audio Copy\Flac\flac.exe
Additional command line options : -8 -V -T "ARTIST=%artist%" -T "TITLE=%title%" -T "ALBUM=%albumtitle%" -T "DATE=%year%" -T "TRACKNUMBER=%tracknr%" -T "GENRE=%genre%" -T "PERFORMER=%albuminterpret%" -T "COMPOSER=%composer%" %haslyrics%--tag-from-file=LYRICS="%lyricsfile%"%haslyrics% -T "ALBUMARTIST=%albumartist%" -T "ALBUM ARTIST=%albumartist%" -T "DISCNUMBER=%cdnumber%" -T "TOTALDISCS=%totalcds%" -T "TOTALTRACKS=%numtracks%" -T "COMMENT=%comment%" %source% -o %dest%
TOC of the extracted CD
Track | Start | Length | Start sector | End sector
---------------------------------------------------------
1 | 0:00.32 | 5:27.38 | 32 | 24594
2 | 5:27.70 | 2:06.00 | 24595 | 34044
3 | 7:33.70 | 1:49.00 | 34045 | 42219
4 | 9:22.70 | 1:14.37 | 42220 | 47806
5 | 10:37.32 | 4:16.38 | 47807 | 67044
6 | 14:53.70 | 0:52.00 | 67045 | 70944
7 | 15:45.70 | 3:04.37 | 70945 | 84781
8 | 18:50.32 | 2:41.63 | 84782 | 96919
9 | 21:32.20 | 1:36.50 | 96920 | 104169
10 | 23:08.70 | 2:36.50 | 104170 | 115919
11 | 25:45.45 | 1:20.50 | 115920 | 121969
12 | 27:06.20 | 2:42.50 | 121970 | 134169
13 | 29:48.70 | 1:37.60 | 134170 | 141504
14 | 31:26.55 | 2:40.65 | 141505 | 153569
15 | 34:07.45 | 1:27.25 | 153570 | 160119
16 | 35:34.70 | 2:03.00 | 160120 | 169344
17 | 37:37.70 | 2:25.50 | 169345 | 180269
18 | 40:03.45 | 1:16.62 | 180270 | 186031
19 | 41:20.32 | 1:43.60 | 186032 | 193816
20 | 43:04.17 | 2:00.53 | 193817 | 202869
Track 1
Filename C:\EACrips\01 - Le Chant des Oyseaulx.wav
Pre-gap length 0:00:02.42
Peak level 75.2 %
Extraction speed 4.6 X
Track quality 100.0 %
Test CRC A5E4F5A2
Copy CRC A5E4F5A2
Accurately ripped (confidence 5) [45C22801] (AR v2)
Copy OK
Track 2
Filename C:\EACrips\02 - Toutes les nuictz.wav
Pre-gap length 0:00:04.00
Peak level 71.5 %
Extraction speed 4.4 X
Track quality 100.0 %
Test CRC 2F1B1D32
Copy CRC 2F1B1D32
Accurately ripped (confidence 5) [6DF79C6B] (AR v2)
Copy OK
Track 3
Filename C:\EACrips\03 - J'atens le temps.wav
Pre-gap length 0:00:03.00
Peak level 40.5 %
Extraction speed 4.2 X
Track quality 100.0 %
Test CRC 88D31024
Copy CRC 88D31024
Accurately ripped (confidence 5) [ADE52A48] (AR v2)
Copy OK
Track 4
Filename C:\EACrips\04 - Il estoit une fillette.wav
Pre-gap length 0:00:02.00
Peak level 70.6 %
Extraction speed 4.0 X
Track quality 100.0 %
Test CRC 2DA84451
Copy CRC 2DA84451
Accurately ripped (confidence 5) [BC62A6CA] (AR v2)
Copy OK
Track 5
Filename C:\EACrips\05 - Las on peult juger (Chanson de Janequin, Transcription pour luth de G. Morlaye).wav
Pre-gap length 0:00:02.49
Peak level 53.7 %
Extraction speed 5.3 X
Track quality 100.0 %
Test CRC 42BCA6CA
Copy CRC 42BCA6CA
Accurately ripped (confidence 5) [E473EEE0] (AR v2)
Copy OK
Track 6
Filename C:\EACrips\06 - Ung jour Colin.wav
Pre-gap length 0:00:03.00
Peak level 81.7 %
Extraction speed 3.5 X
Track quality 100.0 %
Test CRC 7004F402
Copy CRC 7004F402
Accurately ripped (confidence 5) [5788D1CD] (AR v2)
Copy OK
Track 7
Filename C:\EACrips\07 - O doulx regard, o parler.wav
Pre-gap length 0:00:02.66
Peak level 84.0 %
Extraction speed 5.5 X
Track quality 100.0 %
Test CRC AF872E7C
Copy CRC AF872E7C
Accurately ripped (confidence 5) [44F7982E] (AR v2)
Copy OK
Track 8
Filename C:\EACrips\08 - Le chant de l'alouette.wav
Pre-gap length 0:00:04.49
Peak level 82.7 %
Extraction speed 5.7 X
Track quality 100.0 %
Test CRC 06AE755A
Copy CRC 06AE755A
Accurately ripped (confidence 5) [C6BB5A5C] (AR v2)
Copy OK
Track 9
Filename C:\EACrips\09 - Quand contremont verras.wav
Pre-gap length 0:00:04.86
Peak level 41.4 %
Extraction speed 5.1 X
Track quality 100.0 %
Test CRC 8A1DB6AB
Copy CRC 8A1DB6AB
Accurately ripped (confidence 5) [52B3D45B] (AR v2)
Copy OK
Track 10
Filename C:\EACrips\10 - Hellas mon Dieu ton ire.wav
Pre-gap length 0:00:04.66
Peak level 71.2 %
Extraction speed 4.5 X
Track quality 99.9 %
Test CRC 58CD1B42
Copy CRC 58CD1B42
Accurately ripped (confidence 5) [41410B9E] (AR v2)
Copy OK
Track 11
Filename C:\EACrips\11 - Ma peine n'est pas grande.wav
Pre-gap length 0:00:02.84
Peak level 72.7 %
Extraction speed 3.3 X
Track quality 99.8 %
Test CRC F2827D40
Copy CRC F2827D40
Accurately ripped (confidence 5) [2D0EF5B0] (AR v2)
Copy OK
Track 12
Filename C:\EACrips\12 - O mal d'aymer.wav
Pre-gap length 0:00:02.66
Peak level 53.6 %
Extraction speed 4.8 X
Track quality 99.9 %
Test CRC BF8F7804
Copy CRC BF8F7804
Accurately ripped (confidence 5) [6B8756C1] (AR v2)
Copy OK
Track 13
Filename C:\EACrips\13 - Herbes et fleurs.wav
Pre-gap length 0:00:04.33
Peak level 68.1 %
Extraction speed 5.4 X
Track quality 100.0 %
Test CRC 3276D078
Copy CRC 3276D078
Accurately ripped (confidence 5) [AB176E21] (AR v2)
Copy OK
Track 14
Filename C:\EACrips\14 - L'aveuglé Dieu (A. de Rippe d'après Janequin).wav
Pre-gap length 0:00:04.33
Peak level 20.3 %
Extraction speed 6.1 X
Track quality 100.0 %
Test CRC AD9D3D63
Copy CRC AD9D3D63
Accurately ripped (confidence 5) [7E32CADA] (AR v2)
Copy OK
Track 15
Filename C:\EACrips\15 - A ce joly moys de may.wav
Pre-gap length 0:00:00.66
Peak level 62.0 %
Extraction speed 5.3 X
Track quality 100.0 %
Test CRC 6AE4C3B2
Copy CRC 6AE4C3B2
Accurately ripped (confidence 5) [542C8BC9] (AR v2)
Copy OK
Track 16
Filename C:\EACrips\16 - Assouvy suis.wav
Pre-gap length 0:00:05.00
Peak level 54.9 %
Extraction speed 6.2 X
Track quality 100.0 %
Test CRC DDD31235
Copy CRC DDD31235
Accurately ripped (confidence 5) [24E3FFC6] (AR v2)
Copy OK
Track 17
Filename C:\EACrips\17 - Quelqu'un me disoit l'aultre jour.wav
Pre-gap length 0:00:04.00
Peak level 42.6 %
Extraction speed 6.4 X
Track quality 100.0 %
Test CRC 880B5142
Copy CRC 880B5142
Accurately ripped (confidence 5) [4512E491] (AR v2)
Copy OK
Track 18
Filename C:\EACrips\18 - M'y levay ung matin.wav
Pre-gap length 0:00:03.97
Peak level 63.2 %
Extraction speed 5.6 X
Track quality 100.0 %
Test CRC D243A824
Copy CRC D243A824
Accurately ripped (confidence 5) [BDA4F260] (AR v2)
Copy OK
Track 19
Filename C:\EACrips\19 - M'Amye a eu de Dieu.wav
Pre-gap length 0:00:03.73
Peak level 58.4 %
Extraction speed 5.9 X
Track quality 100.0 %
Test CRC CD4DAAAC
Copy CRC CD4DAAAC
Accurately ripped (confidence 5) [7D809D23] (AR v2)
Copy OK
Track 20
Filename C:\EACrips\20 - Le chant du rossignol.wav
Pre-gap length 0:00:03.29
Peak level 68.1 %
Extraction speed 6.7 X
Track quality 100.0 %
Test CRC E4181AA2
Copy CRC E4181AA2
Accurately ripped (confidence 5) [CAF89F95] (AR v2)
Copy OK
All tracks accurately ripped
No errors occurred
End of status report
==== Log checksum D5FD430D4C78D89A92E12AB0F03DBC5A5186890DFC484AF1F0B055CD66D33321 ====

Содержание индексной карты (.CUE):

REM GENRE Classical
REM DATE 1983
REM DISCID 370A9014
REM COMMENT "ExactAudioCopy v1.0b3"
CATALOG 0000000000000
PERFORMER "Ensemble Clément Janequin"
TITLE "Le Chant des Oyseaulx"
FILE "01. Le Chant des Oyseaulx.flac" WAVE
TRACK 01 AUDIO
TITLE "Le Chant des Oyseaulx"
PERFORMER "Ensemble Clément Janequin"
PREGAP 00:00:32
INDEX 01 00:00:00
TRACK 02 AUDIO
TITLE "Toutes les nuictz"
PERFORMER "Ensemble Clément Janequin"
INDEX 00 05:23:38
FILE "02. Toutes les nuictz.flac" WAVE
INDEX 01 00:00:00
TRACK 03 AUDIO
TITLE "J’atens le temps"
PERFORMER "Ensemble Clément Janequin"
INDEX 00 02:03:00
FILE "03. J’atens le temps.flac" WAVE
INDEX 01 00:00:00
TRACK 04 AUDIO
TITLE "Il estoit une fillette"
PERFORMER "Ensemble Clément Janequin"
INDEX 00 01:47:00
FILE "04. Il estoit une fillette.flac" WAVE
INDEX 01 00:00:00
TRACK 05 AUDIO
TITLE "Las on peult juger (Chanson de Janequin, Transcription pour luth de G. Morlaye)"
PERFORMER "Ensemble Clément Janequin"
INDEX 00 01:12:00
FILE "05. Las on peult juger.flac" WAVE
INDEX 01 00:00:00
TRACK 06 AUDIO
TITLE "Ung jour Colin"
PERFORMER "Ensemble Clément Janequin"
INDEX 00 04:13:38
FILE "06. Ung jour Colin.flac" WAVE
INDEX 01 00:00:00
TRACK 07 AUDIO
TITLE "O doulx regard, o parler"
PERFORMER "Ensemble Clément Janequin"
INDEX 00 00:49:25
FILE "07. O doulx regard, o parler.flac" WAVE
INDEX 01 00:00:00
TRACK 08 AUDIO
TITLE "Le chant de l’alouette"
PERFORMER "Ensemble Clément Janequin"
INDEX 00 03:00:00
FILE "08. Le chant de l’alouette.flac" WAVE
INDEX 01 00:00:00
TRACK 09 AUDIO
TITLE "Quand contremont verras"
PERFORMER "Ensemble Clément Janequin"
INDEX 00 02:36:73
FILE "09. Quand contremont verras.flac" WAVE
INDEX 01 00:00:00
TRACK 10 AUDIO
TITLE "Hellas mon Dieu ton ire"
PERFORMER "Ensemble Clément Janequin"
INDEX 00 01:32:00
FILE "10. Hellas mon Dieu ton ire.flac" WAVE
INDEX 01 00:00:00
TRACK 11 AUDIO
TITLE "Ma peine n’est pas grande"
PERFORMER "Ensemble Clément Janequin"
INDEX 00 02:33:62
FILE "11. Ma peine n’est pas grande.flac" WAVE
INDEX 01 00:00:00
TRACK 12 AUDIO
TITLE "O mal d’aymer"
PERFORMER "Ensemble Clément Janequin"
INDEX 00 01:18:00
FILE "12. O mal d’aymer.flac" WAVE
INDEX 01 00:00:00
TRACK 13 AUDIO
TITLE "Herbes et fleurs"
PERFORMER "Ensemble Clément Janequin"
INDEX 00 02:38:25
FILE "13. Herbes et fleurs.flac" WAVE
INDEX 01 00:00:00
TRACK 14 AUDIO
TITLE "L’aveuglé Dieu (A. de Rippe d’après Janequin)"
PERFORMER "Ensemble Clément Janequin"
INDEX 00 01:33:35
FILE "14. L’aveuglé Dieu.flac" WAVE
INDEX 01 00:00:00
TRACK 15 AUDIO
TITLE "A ce joly moys de may"
PERFORMER "Ensemble Clément Janequin"
INDEX 00 02:40:15
FILE "15. A ce joly moys de may.flac" WAVE
INDEX 01 00:00:00
TRACK 16 AUDIO
TITLE "Assouvy suis"
PERFORMER "Ensemble Clément Janequin"
INDEX 00 01:22:25
FILE "16. Assouvy suis.flac" WAVE
INDEX 01 00:00:00
TRACK 17 AUDIO
TITLE "Quelqu'un me disoit l'aultre jour"
PERFORMER "Ensemble Clément Janequin"
INDEX 00 01:59:00
FILE "17. Quelqu’un me disoit l’aultre jour.flac" WAVE
INDEX 01 00:00:00
TRACK 18 AUDIO
TITLE "M'y levay ung matin"
PERFORMER "Ensemble Clément Janequin"
INDEX 00 02:21:52
FILE "18. M’y levay ung matin.flac" WAVE
INDEX 01 00:00:00
TRACK 19 AUDIO
TITLE "M'Amye a eu de Dieu"
PERFORMER "Ensemble Clément Janequin"
INDEX 00 01:13:07
FILE "19. M’Amye a eu de Dieu.flac" WAVE
INDEX 01 00:00:00
TRACK 20 AUDIO
TITLE "Le chant du rossignol"
PERFORMER "Ensemble Clément Janequin"
INDEX 00 01:40:38
FILE "20. Le chant du rossignol.flac" WAVE
INDEX 01 00:00:00



Показать сообщения:    

Текущее время: 05-Дек 05:31

Часовой пояс: UTC + 3


Вы не можете начинать темы
Вы не можете отвечать на сообщения
Вы не можете редактировать свои сообщения
Вы не можете удалять свои сообщения
Вы не можете голосовать в опросах
Вы не можете прикреплять файлы к сообщениям
Вы не можете скачивать файлы