(Lied) Schumann - Frauenliebe und -leben, Lenau Lieder - B. Fink, R. Vignoles - 2001, FLAC (image+.cue) lossless


 

[Цитировать]

Robert Schumann - Frauenliebe und -leben, Lenau Lieder - B. Fink, R. Vignoles
Жанр: Lied
Страна-производитель диска: EU
Год издания диска: 2001
Издатель (лейбл): Harmonia Mundi
Номер по каталогу: HMC 901753
Дата записи: 2001
Аудиокодек: FLAC
Тип рипа: image+.cue
Битрейт аудио: lossless
Продолжительность: 60:25
Источник: скачано с web
Важная информация: рип не мой, все благодарности оригинальному аплоудеру / Important Note: not my rip, all credits to the original uploader
Наличие сканов в содержимом раздачи: да
Треклист:
[01]-[08] Frauenliebe und -leben, Op. 42
[09] Mignon ('Kennst du das Land, wo die Zitronen blühn'), Op. 79 No. 29
[10] Der Nussbaum, Op. 25 No. 3
[11] Aufträge, Op. 77 No. 5
[12] Die Lotosblume, Op. 25 No. 7
[13] Ständchen, Op. 36 No. 2
[14] Nachtlied, Op. 96 No. 1
[15] Der Sandmann, Op. 79 No. 13
[16] Das verlassene Mägdlein, Op. 64 No. 2
[17] Die Kartenlegerin, Op. 31 No. 2
[18]-[24] Gedichte und Requiem, Op. 90
Исполнители:
Bernarda Fink (mezzo-soprano)
Roger Vignoles (piano)

Лог создания рипа

Exact Audio Copy V0.99 prebeta 4 from 23. January 2008
Archivo Log de extracciones desde 9. Junio 2008, 11:09
Bernarda Fink - Roger Vignoles / Robert Schumann - Lieder
Usar unidad : HL-DT-STDVDRAM GSA-H12N Adapter: 1 ID: 0
Modo de Lectura : Seguro
Utilizar Corriente Exacta : Sí
Descartar Audio caché : Sí
Utilizar los punteros C2 : No
Corrección de Desplazamiento de Lectura : 0
Sobreleer tanto en Lead-In como en Lead-Out : No
Rellenar las muestras faltantes con silencios : Sí
Eliminar silencios inicial y final : No
Se han usado muestras nulas en los cálculos CRC : No
Interfaz usada : Interfaz propio de Win32 para Windowns NT y 2000
Formato de Salida utilizado : Compresor definido por el usuario
Bitrate seleccionado : 1024 kBit/s
Calidad : Alta
Añadir Etiqueta ID3 : No
Compresor de linea de comandos : C:\Utilidades\EAC\Exact Audio Copy\FLAC\FLAC.EXE
Opciones adicionales en línea de comandos : -8 -T "artist=%a" -T "title=%t" -T "album=%g" -T "date=%y" -T "tracknumber=%n" -T "genre=%m" %s
TOC del CD extraido
Pista | Inicio | Duración | Sector inicial | Sector final
-------------------------------------------------------------
1 | 0:00.00 | 2:13.15 | 0 | 9989
2 | 2:13.15 | 3:05.00 | 9990 | 23864
3 | 5:18.15 | 1:47.00 | 23865 | 31889
4 | 7:05.15 | 2:36.45 | 31890 | 43634
5 | 9:41.60 | 1:57.67 | 43635 | 52476
6 | 11:39.52 | 3:56.10 | 52477 | 70186
7 | 15:35.62 | 1:17.68 | 70187 | 76029
8 | 16:53.55 | 3:33.10 | 76030 | 92014
9 | 20:26.65 | 3:42.05 | 92015 | 108669
10 | 24:08.70 | 3:05.25 | 108670 | 122569
11 | 27:14.20 | 2:30.35 | 122570 | 133854
12 | 29:44.55 | 1:42.65 | 133855 | 141569
13 | 31:27.45 | 1:45.57 | 141570 | 149501
14 | 33:13.27 | 2:15.08 | 149502 | 159634
15 | 35:28.35 | 2:00.32 | 159635 | 168666
16 | 37:28.67 | 2:01.60 | 168667 | 177801
17 | 39:30.52 | 3:15.73 | 177802 | 192499
18 | 42:46.50 | 1:27.07 | 192500 | 199031
19 | 44:13.57 | 3:21.55 | 199032 | 214161
20 | 47:35.37 | 1:21.03 | 214162 | 220239
21 | 48:56.40 | 1:58.37 | 220240 | 229126
22 | 50:55.02 | 3:03.23 | 229127 | 242874
23 | 53:58.25 | 2:21.40 | 242875 | 253489
24 | 56:19.65 | 4:03.55 | 253490 | 271769
Gama de estados y errores
Seleccionar gama
Nombre de Archivo F:\Musica\Schumann\Bernarda Fink - Roger Vignoles - Robert Schumann - Lieder.wav
Nivel Pico 98.5 %
Gama de Calidad 100.0 %
Copiar CRC A15B8DAB
Copia OK
Sin Errores
Final del Informe



Показать сообщения:    

Текущее время: 11-Дек 01:25

Часовой пояс: UTC + 3


Вы не можете начинать темы
Вы не можете отвечать на сообщения
Вы не можете редактировать свои сообщения
Вы не можете удалять свои сообщения
Вы не можете голосовать в опросах
Вы не можете прикреплять файлы к сообщениям
Вы не можете скачивать файлы