Чудо-Женщины! / Wonder Women! (Кристи Гевара-Флэнаган / Kristy Guevara-Flanagan) [2012, Док. фильм, SATRip]


Статистика раздачи [Обновить пиров]
Размер:  484 MB   |    Зарегистрирован:  8 месяцев 16 дней   |    Скачан:  0 раз

Полного источника не было: Никогда

 
   
 
 
 

[Цитировать]

Чудо-Женщины! / Wonder Women!
Год выпуска: 2012
Страна: США
Жанр: Док. фильм
Продолжительность: 00:55:18
Перевод: Субтитры
Русские субтитры: есть
Режиссер: Кристи Гевара-Флэнаган / Kristy Guevara-Flanagan
Описание: Полное название: Чудо-Женщины! Нерассказанная история американских супергероинь / Wonder Women! The Untold Story of American Superheroines
Супергероини и их место в американской массовой культуре - тема представленной ленты

SATRip от : Твид
Доп. информация: Любезно предоставлено клубом Fenix
Сэмпл: http://multi-up.com/907066
качество: SATRip
формат: AVI
Видео: XviD, 1089 kb/s, 640x480, 25 fps, 0.142 bits/pixel
Аудио: 0x0055(MP3) ID'd as MPEG-1 Layer 3, 128 kb/s (2/ch, stereo) CBR, 48000 Hz - Английский

MediaInfo

Общее
Полное имя : D:\FILMS\Chudo-Zhenshchiny.SAT-rip.by.Твид.fenixclub.avi
Формат : AVI
Формат/Информация : Audio Video Interleave
Размер файла : 484 Мбайт
Продолжительность : 55 м.
Общий поток : 1223 Кбит/сек
Видео
Идентификатор : 0
Формат : MPEG-4 Visual
Профиль формата : Advanced Simple@L5
Параметр BVOP формата : 2
Параметр QPel формата : Нет
Параметр GMC формата : Без точки перехода
Параметр матрицы формата : Default (H.263)
Идентификатор кодека : XVID
Идентификатор кодека/Подсказка : XviD
Продолжительность : 55 м.
Битрейт : 1085 Кбит/сек
Ширина : 640 пикселей
Высота : 480 пикселей
Соотношение сторон : 4:3
Частота кадров : 25,000 кадров/сек
Цветовое пространство : YUV
Субдискретизация насыщенности : 4:2:0
Битовая глубина : 8 бит
Тип развёртки : Прогрессивная
Метод сжатия : С потерями
Бит/(Пиксели*Кадры) : 0.141
Размер потока : 429 Мбайт (89%)
Библиотека кодирования : XviD 1.1.2 (UTC 2006-11-01)
Аудио
Идентификатор : 1
Формат : MPEG Audio
Версия формата : Version 1
Профиль формата : Layer 3
Режим : Joint stereo
Расширение режима : MS Stereo
Идентификатор кодека : 55
Идентификатор кодека/Подсказка : MP3
Продолжительность : 55 м.
Вид битрейта : Постоянный
Битрейт : 128 Кбит/сек
Каналы : 2 канала
Частота : 48,0 КГц
Метод сжатия : С потерями
Размер потока : 50,6 Мбайт (10%)
Выравнивание : Разделение по промежуткам
Продолжительность промежутка : 40 мс. (1,00 видеокадр)
Время предзагрузки промежутка : 500 мс.

Скриншоты

[teatrix.ru].t17691.torrent 
Торрент: Зарегистрирован [ 2016-03-17 00:51 ] · 9115AE898B8BB65A99B9A3EBB71A3B327ADA3ADC

Скачать .torrent

Скачать

19 KB

Статус: проверено
Скачан: 0 раз
Размер: 484 MB
terms.php



Показать сообщения:    

Текущее время: 02-Дек 23:06

Часовой пояс: UTC + 3


Вы не можете начинать темы
Вы не можете отвечать на сообщения
Вы не можете редактировать свои сообщения
Вы не можете удалять свои сообщения
Вы не можете голосовать в опросах
Вы не можете прикреплять файлы к сообщениям
Вы можете скачивать файлы