Артисты - фронту (Виталий Янов) [2013, Документальный, история, война, музыка, IPTVRip]


Статистика раздачи [Обновить пиров]
Размер:  417 MB   |    Зарегистрирован:  8 месяцев 25 дней   |    Скачан:  0 раз

Полного источника не было: Никогда

 
   
 
 
 

[Цитировать]

Артисты - фронту
Год выпуска: 2013
Страна: Россия
Жанр: Документальный, история, война, музыка
Продолжительность: 00:37:25
Перевод: Не требуется
Режиссер: Виталий Янов
Описание: Фильм о звёздах советской эстрады, которые во время Великой Отечественной выступали с концертами на передовой. О том, как война заставила каждого из них по-другому взглянуть на себя и свое творчество. О том, как каждый прошел свой, тяжелый, а иногда и страшный путь. О том, как песня становилась оружием, причем, очень мощным, поскольку била в самое сердце.
Качество: IPTVRip
Формат: AVI
Видео: XviD, 704x400, (1.76:1), 1421 kbps avg, 25 fps, 0.20 bit/pixel
Аудио: 48 kHz, MPEG Layer 3, 2 ch, ~128.00 kbps avg

MediaInfo

General
Complete name : C:\Users\Acer\Desktop\раздача\Артисты-фронту.2013.IPTVRip.avi
Format : AVI
Format/Info : Audio Video Interleave
File size : 417 MiB
Duration : 37mn 25s
Overall bit rate : 1 559 Kbps
Writing application : VirtualDubMod 1.5.10.2 (build 2540/release)
Writing library : VirtualDubMod build 2540/release
Video
ID : 0
Format : MPEG-4 Visual
Format profile : Advanced Simple@L5
Format settings, BVOP : 2
Format settings, QPel : No
Format settings, GMC : No warppoints
Format settings, Matrix : Default (MPEG)
Codec ID : XVID
Codec ID/Hint : XviD
Duration : 37mn 25s
Bit rate : 1 421 Kbps
Width : 704 pixels
Height : 400 pixels
Display aspect ratio : 16:9
Frame rate : 25.000 fps
Color space : YUV
Chroma subsampling : 4:2:0
Bit depth : 8 bits
Scan type : Progressive
Compression mode : Lossy
Bits/(Pixel*Frame) : 0.202
Stream size : 380 MiB (91%)
Writing library : XviD 1.2.1 (UTC 2008-12-04)
Audio
ID : 1
Format : MPEG Audio
Format version : Version 1
Format profile : Layer 3
Codec ID : 55
Codec ID/Hint : MP3
Duration : 37mn 25s
Bit rate mode : Constant
Bit rate : 128 Kbps
Channel(s) : 2 channels
Sampling rate : 48.0 KHz
Compression mode : Lossy
Stream size : 34.3 MiB (8%)
Alignment : Aligned on interleaves
Interleave, duration : 40 ms (1.00 video frame)
Interleave, preload duration : 504 ms

Скриншоты



[teatrix.ru].t17700.torrent 
Торрент: Зарегистрирован [ 2016-03-17 00:51 ] · 7719154501C4EE70437E312568EAAD1EC3B4F164

Скачать .torrent

Скачать

9 KB

Статус: проверено
Скачан: 0 раз
Размер: 417 MB
terms.php



Быстрый ответ

Имя:

      
Для отправки сообщений необходимо включить JavaScript
Показать сообщения:    

Текущее время: 11-Дек 03:20

Часовой пояс: UTC + 3


Вы можете начинать темы
Вы можете отвечать на сообщения
Вы не можете редактировать свои сообщения
Вы не можете удалять свои сообщения
Вы не можете голосовать в опросах
Вы не можете прикреплять файлы к сообщениям
Вы можете скачивать файлы