По волне моей памяти. Леонид Борткевич (2 части из 2) (Олег Нестеров) [2009, Документальный, биография, музыка, беседа, SATRip]


Статистика раздачи [Обновить пиров]
Размер:  1.11 GB   |    Зарегистрирован:  8 месяцев 20 дней   |    Скачан:  0 раз

Полного источника не было: Никогда

 
   
 
 
 

[Цитировать]

По волне моей памяти. Леонид Борткевич (2 части из 2)
Год выпуска: 2009
Страна: Россия, ЗАО "Первый канал"
Жанр: Документальный, биография, музыка, беседа
Продолжительность: 00:48:24 + 00:45:20
Перевод: Не требуется
Русские субтитры: нет
Режиссер: Олег Нестеров
Рип от:
Описание: «Русское вторжение на западный фронт», — именно так в середине семидесятых годов двадцатого века назвала выступления ансамбля «Песняры» в США американская пресса.
И действительно, в 70-е «Песняры», пожалуй, были единственным рок-коллективом из СССР, который признали на Западе. За их профессионализм, мелодизм и особую эстетику. Визитной карточкой легендарного музыкального коллектива был и остается голос одного из солистов ансамбля — Леонида Борткевича.
Сэмпл: http://multi-up.com/909616
качество: SATRip
формат: AVI
Видео: 640х480 (1.33:1), 25 fps, XviD, ~ 1500 kbps avg, 0.19 bit/pixel
Аудио: 48 kHz, AC 3, 2 ch, ~ 192 kbps avg

MediaInfo

Complete name : D:\po_volne_moej_pamjati_leonid_bortkevich_2_chasti_iz_2\po_volne_moej_pamjati_leonid_bortkevich_chastj_2.avi
Format : AVI
Format/Info : Audio Video Interleave
File size : 551 MiB
Duration : 45mn 20s
Overall bit rate : 1 699 Kbps
Writing application : VirtualDubMod 1.5.10.2 (build 2540/release)
Writing library : VirtualDubMod build 2540/release
Video
ID : 0
Format : MPEG-4 Visual
Format profile : Advanced Simple@L5
Format settings, BVOP : 2
Format settings, QPel : No
Format settings, GMC : No warppoints
Format settings, Matrix : Default (MPEG)
Codec ID : XVID
Codec ID/Hint : XviD
Duration : 45mn 20s
Bit rate : 1 498 Kbps
Width : 640 pixels
Height : 480 pixels
Display aspect ratio : 4:3
Frame rate : 25.000 fps
Color space : YUV
Chroma subsampling : 4:2:0
Bit depth : 8 bits
Scan type : Progressive
Compression mode : Lossy
Bits/(Pixel*Frame) : 0.195
Stream size : 486 MiB (88%)
Writing library : XviD 1.2.1 (UTC 2008-12-04)
Audio
ID : 1
Format : AC-3
Format/Info : Audio Coding 3
Mode extension : CM (complete main)
Format settings, Endianness : Big
Codec ID : 2000
Duration : 45mn 20s
Bit rate mode : Constant
Bit rate : 192 Kbps
Channel count : 2 channels
Channel positions : Front: L R
Sampling rate : 48.0 KHz
Bit depth : 16 bits
Compression mode : Lossy
Stream size : 62.3 MiB (11%)
Alignment : Split accross interleaves
Interleave, duration : 40 ms (1.00 video frame)
Interleave, preload duration : 500 ms

Скриншоты

[teatrix.ru].t17702.torrent 
Торрент: Зарегистрирован [ 2016-03-17 00:51 ] · AF5799C4DDB1642060482F959F9650E89A06E28C

Скачать .torrent

Скачать

23 KB

Статус: проверено
Скачан: 0 раз
Размер: 1.11 GB
terms.php



Быстрый ответ

Имя:

      
Для отправки сообщений необходимо включить JavaScript
Показать сообщения:    

Текущее время: 06-Дек 17:10

Часовой пояс: UTC + 3


Вы можете начинать темы
Вы можете отвечать на сообщения
Вы не можете редактировать свои сообщения
Вы не можете удалять свои сообщения
Вы не можете голосовать в опросах
Вы не можете прикреплять файлы к сообщениям
Вы можете скачивать файлы