Дисней по пятницам. Дисней: Годы сказок / Omnibus. Disney: The Fairy Tale Years (Брайан Скит / Brian Skeet) [1992, документальный, анимация, VHSRip]


Статистика раздачи [Обновить пиров]
Размер:  2.1 GB   |    Зарегистрирован:  8 месяцев 23 дня   |    Скачан:  0 раз

Полного источника не было: Никогда

 
   
 
 
 

[Цитировать]

Дисней по пятницам. Дисней: Годы сказок / Omnibus. Disney: The Fairy Tale Years- Год выпуска: 1992
Страна: Великобритания
Жанр: документальный, анимация
Продолжительность: 00:53:04
Перевод: Профессиональный (многоголосый закадровый)
Русские субтитры: нет-Продюсер: Брайан Скит / Brian Skeet-Описание: Фильм прослеживает историю диснеевских мультипликационных экранизаций сказок, независимо от того, следовал ли он и его студия литературным первоисточникам (братья Гримм, Ганс Христиан Андерсон, Шарль Перро) или же изменял сказки на свой лад.-Доп. информация: Спасибо Vovnik за любезно предоставленную оцифровку.-Релиз: -Семпл: http://sendfile.su/877551-качество: VHSRip
формат: MPG
Видео: 720x576 (4:3), 25.000 fps, MPEG-2 Video, ~5368 Kbps, 0.518 bits/pixel
Аудио: Русский, 48.0 KHz, AC3, 1 ch, 192 Kbps

MediaInfo

General
Complete name : Disney The Fairy Tale Years.1992.mpg
Format : MPEG-PS
File size : 2.10 GiB
Duration : 53mn 3s
Overall bit rate mode : Variable
Overall bit rate : 5 672 Kbps
Video
ID : 224 (0xE0)
Format : MPEG Video
Format version : Version 2
Format profile : Main@Main
Format settings, BVOP : Yes
Format settings, Matrix : Custom
Format settings, GOP : M=3, N=15
Duration : 53mn 3s
Bit rate mode : Variable
Bit rate : 5 368 Kbps
Maximum bit rate : 6 000 Kbps
Width : 720 pixels
Height : 576 pixels
Display aspect ratio : 4:3
Frame rate : 25.000 fps
Standard : PAL
Color space : YUV
Chroma subsampling : 4:2:0
Bit depth : 8 bits
Scan type : Interlaced
Scan order : Top Field First
Compression mode : Lossy
Bits/(Pixel*Frame) : 0.518
Time code of first frame : 00:00:00:00
Time code source : Group of pictures header
Stream size : 1.99 GiB (95%)
Audio
ID : 189 (0xBD)-128 (0x80)
Format : AC-3
Format/Info : Audio Coding 3
Mode extension : CM (complete main)
Format settings, Endianness : Big
Muxing mode : DVD-Video
Duration : 53mn 3s
Bit rate mode : Constant
Bit rate : 192 Kbps
Channel(s) : 1 channel
Channel positions : Front: C
Sampling rate : 48.0 KHz
Bit depth : 16 bits
Compression mode : Lossy
Stream size : 72.9 MiB (3%)

Скриншоты

[teatrix.ru].t17709.torrent 
Торрент: Зарегистрирован [ 2016-03-17 00:51 ] · 8F7C10185933CE74ACDC2CA4210BA49AC6710F7D

Скачать .torrent

Скачать

11 KB

Статус: проверено
Скачан: 0 раз
Размер: 2.1 GB
terms.php



Показать сообщения:    

Текущее время: 09-Дек 06:56

Часовой пояс: UTC + 3


Вы не можете начинать темы
Вы не можете отвечать на сообщения
Вы не можете редактировать свои сообщения
Вы не можете удалять свои сообщения
Вы не можете голосовать в опросах
Вы не можете прикреплять файлы к сообщениям
Вы можете скачивать файлы