(Baroque) Johann Ulich - VI Sonaten, 2 Harpsichord Suites - Lux Borea (Paul Wahlberg, Pavel Serbin, Andreas Edlund) - 2011, FLAC (image+.cue) lossless


 

[Цитировать]

Johann Ulich - VI Sonaten, 2 Harpsichord Suites - Lux Borea
Жанр: Baroque
Страна-производитель диска: EU
Год издания диска: 2011
Издатель (лейбл): Euridice
Номер по каталогу: EUCD 63
Аудиокодек: FLAC
Тип рипа: image+.cue
Битрейт аудио: lossless
Продолжительность: 01:07:43
Источник: собственный рип
Наличие сканов в содержимом раздачи: да
Треклист:
01. Sonata I in C major - 1. Vivace - un poco adagio vivace (2:29)
02. 2. Adagio (0:33)
03. 3. Presto (1:01)
04. 4. Gavott (1:17)
05. Sonata II in F major - 1. Vivace (0:36)
06. 2. Adagio (0:40)
07. 3. Presto (1:27)
08. 4. Adagio (2:06)
09. 5. Gigue (1:33)
10. 6. Menuet (1:18)
11. Sonata con Suite in F major - 1. Vivace (1:38)
12. 2. Passepied (1:19)
13. 3. Air: adagio (2:41)
14. 4. Menuet (0:38)
15. 5. Gavotte: allegro (0:40)
16. 6. Menuet (1:05)
17. Sonata III in G minor - 1. Andante (1:40)
18. 2. Adagio (0:56)
19. 3. Vivace (1:34)
20. 4. Adagio (1:47)
21. Menuet (1:34)
22. Sonata IV in B flat major - 1. Vivace (0:58)
23. 2. Adagio (1:01)
24. 3. Presto (1:24)
25. 4. Air (4:36)
26. Suite in G major - 1. Intrada (1:35)
27. 2. Vivace (1:09)
28. 3. Air: adagio (2:32)
29. 4. La Platterie (0:48)
30. 5. Menuet (1:24)
31. Sonata V in D minor - 1. Vivace (1:32)
32. 2. Presto (1:45)
33. 3. Adagio (1:27)
34. 4. Vivace (1:29)
35. Sonata VI in G minor - 1. Un poco adagio (2:22)
36. 2. Adagio (1:38)
37. 3. Vivace (2:16)
38. 4. Adagio (1:40)
39. 5. Gigue (1:29)
40. 6. Menuet (1:03)
41. 7. Air: adagio (3:53)
42. 8. Presto (1:23)
43. 9. Menuet (1:24)
Исполнители:
Lux Borea:
Paul Wahlberg - recorder
Pavel Serbin - cello
Andreas Edlund - harpsichord

Лог создания рипа

Exact Audio Copy V1.0 beta 3 from 29. August 2011
Отчёт EAC об извлечении, выполненном 6. мая 2013, 16:21
Lux Borea / Johan Ulich 6 Sonaten - Flauto con Cembalo
Дисковод: Optiarc DVD RW AD-5280S Adapter: 0 ID: 1
Режим чтения : Достоверность
Использование точного потока : Да
Отключение кэша аудио : Да
Использование указателей C2 : Нет
Коррекция смещения при чтении : 48
Способность читать области Lead-in и Lead-out : Нет
Заполнение пропущенных сэмплов тишиной : Да
Удаление блоков с тишиной в начале и конце : Нет
При вычислениях CRC использовались нулевые сэмплы : Да
Интерфейс : Встроенный Win32-интерфейс для Win NT/2000
Выходной формат : Пользовательский кодировщик
Выбранный битрейт : 128 kBit/s
Качество : Высокий
Добавление ID3-тега : Нет
Утилита сжатия : C:\Program Files\Exact Audio Copy\Flac\flac.exe
Дополнительные параметры : -V -8 -T "Date=%year%" -T "Genre=%genre%" %source%
TOC извлечённого CD
Трек | Старт | Длительность | Начальный сектор | Конечный сектор
---------------------------------------------------------------------
1 | 0:00.00 | 2:29.43 | 0 | 11217
2 | 2:29.43 | 0:33.48 | 11218 | 13740
3 | 3:03.16 | 1:01.26 | 13741 | 18341
4 | 4:04.42 | 1:17.48 | 18342 | 24164
5 | 5:22.15 | 0:36.64 | 24165 | 26928
6 | 5:59.04 | 0:40.71 | 26929 | 29999
7 | 6:40.00 | 1:27.16 | 30000 | 36540
8 | 8:07.16 | 2:06.67 | 36541 | 46057
9 | 10:14.08 | 1:33.39 | 46058 | 53071
10 | 11:47.47 | 1:18.29 | 53072 | 58950
11 | 13:06.01 | 1:38.37 | 58951 | 66337
12 | 14:44.38 | 1:19.73 | 66338 | 72335
13 | 16:04.36 | 2:41.54 | 72336 | 84464
14 | 18:46.15 | 0:38.73 | 84465 | 87387
15 | 19:25.13 | 0:40.41 | 87388 | 90428
16 | 20:05.54 | 1:05.35 | 90429 | 95338
17 | 21:11.14 | 1:40.46 | 95339 | 102884
18 | 22:51.60 | 0:56.21 | 102885 | 107105
19 | 23:48.06 | 1:34.61 | 107106 | 114216
20 | 25:22.67 | 1:47.00 | 114217 | 122241
21 | 27:09.67 | 1:34.34 | 122242 | 129325
22 | 28:44.26 | 0:58.23 | 129326 | 133698
23 | 29:42.49 | 1:01.23 | 133699 | 138296
24 | 30:43.72 | 1:24.03 | 138297 | 144599
25 | 32:08.00 | 4:36.50 | 144600 | 165349
26 | 36:44.50 | 1:35.47 | 165350 | 172521
27 | 38:20.22 | 1:09.48 | 172522 | 177744
28 | 39:29.70 | 2:32.58 | 177745 | 189202
29 | 42:02.53 | 0:48.40 | 189203 | 192842
30 | 42:51.18 | 1:24.02 | 192843 | 199144
31 | 44:15.20 | 1:32.17 | 199145 | 206061
32 | 45:47.37 | 1:45.21 | 206062 | 213957
33 | 47:32.58 | 1:27.40 | 213958 | 220522
34 | 49:00.23 | 1:29.63 | 220523 | 227260
35 | 50:30.11 | 2:22.31 | 227261 | 237941
36 | 52:52.42 | 1:38.69 | 237942 | 245360
37 | 54:31.36 | 2:16.66 | 245361 | 255626
38 | 56:48.27 | 1:40.09 | 255627 | 263135
39 | 58:28.36 | 1:29.71 | 263136 | 269881
40 | 59:58.32 | 1:03.52 | 269882 | 274658
41 | 61:02.09 | 3:53.03 | 274659 | 292136
42 | 64:55.12 | 1:23.08 | 292137 | 298369
43 | 66:18.20 | 1:24.64 | 298370 | 304733
Характеристики диапазона извлечения и сообщения об ошибках
Выбранный диапазон
Имя файла E:\My CD\Lux Borea - Johan Ulich 6 Sonaten - Flauto con Cembalo.wav
Пиковый уровень 94.6 %
Скорость извлечения 4.6 X
Качество диапазона 100.0 %
CRC теста 55319042
CRC копии 55319042
Копирование... OK
Ошибок не произошло
AccurateRip: сводка
Трек 1 отсутствует в базе данных
Трек 2 отсутствует в базе данных
Трек 3 отсутствует в базе данных
Трек 4 отсутствует в базе данных
Трек 5 отсутствует в базе данных
Трек 6 отсутствует в базе данных
Трек 7 отсутствует в базе данных
Трек 8 отсутствует в базе данных
Трек 9 отсутствует в базе данных
Трек 10 отсутствует в базе данных
Трек 11 отсутствует в базе данных
Трек 12 отсутствует в базе данных
Трек 13 отсутствует в базе данных
Трек 14 отсутствует в базе данных
Трек 15 отсутствует в базе данных
Трек 16 отсутствует в базе данных
Трек 17 отсутствует в базе данных
Трек 18 отсутствует в базе данных
Трек 19 отсутствует в базе данных
Трек 20 отсутствует в базе данных
Трек 21 отсутствует в базе данных
Трек 22 отсутствует в базе данных
Трек 23 отсутствует в базе данных
Трек 24 отсутствует в базе данных
Трек 25 отсутствует в базе данных
Трек 26 отсутствует в базе данных
Трек 27 отсутствует в базе данных
Трек 28 отсутствует в базе данных
Трек 29 отсутствует в базе данных
Трек 30 отсутствует в базе данных
Трек 31 отсутствует в базе данных
Трек 32 отсутствует в базе данных
Трек 33 отсутствует в базе данных
Трек 34 отсутствует в базе данных
Трек 35 отсутствует в базе данных
Трек 36 отсутствует в базе данных
Трек 37 отсутствует в базе данных
Трек 38 отсутствует в базе данных
Трек 39 отсутствует в базе данных
Трек 40 отсутствует в базе данных
Трек 41 отсутствует в базе данных
Трек 42 отсутствует в базе данных
Трек 43 отсутствует в базе данных
Ни одного трека нет в базе AccurateRip
Конец отчёта
==== Контрольная сумма отчёта 70A1D76C71982B635A8BB1BB1C2D31EB36B0B33DE17496BF0D7315DF4B8786E9 ====



Показать сообщения:    

Текущее время: 03-Дек 12:32

Часовой пояс: UTC + 3


Вы не можете начинать темы
Вы не можете отвечать на сообщения
Вы не можете редактировать свои сообщения
Вы не можете удалять свои сообщения
Вы не можете голосовать в опросах
Вы не можете прикреплять файлы к сообщениям
Вы не можете скачивать файлы