Ближний круг Андрея Кончаловского (Михаил Ашумов) [1993, документальный, кинематограф, DVB]


Статистика раздачи [Обновить пиров]
Размер:  1.38 GB   |    Зарегистрирован:  8 месяцев 25 дней   |    Скачан:  0 раз

Полного источника не было: Никогда

 
   
 
 
 

[Цитировать]

Ближний круг Андрея Кончаловского- Год выпуска: 1993
Страна: Россия
Жанр: документальный, кинематограф
Продолжительность: 00:38:47
Перевод: Не требуется
Русские субтитры: нет
Режиссер: Михаил АшумовОписание: Кинорежиссер Андрей Кончаловский снял в 1991 году фильм "Ближний круг" о Сталине и его окружении. Российский документалист Михаил Ашумов решил снять фильм о самом Андрее, его "ближнем круге" и генеалогическом древе.
Но во многом это получился "фильм о фильме". О том фильме с Томом Халсом, в котором этот голливудский актер играет Ивана Саньшина, киномеханика самого Сталина. По сюжету его жена становится любовницей Берии и кончает жизнь самоубийством. Кончаловскому Халс понравился в фильме "Амадеус" Милоша Формана. Ну, а Берию у него сыграл мегазвезда, разноплановый Боб Хоскинс.
В документальном фильме есть небольшое интервью с прототипом героя Тома Халса, настоящим киномехаником "вождя всех времен и народов". Ну, а самого Иосифа Виссарионовича прекрасно сыграл Александр Збруев. (анонс канала "Ностальгия")
Доп. информация: Запись со спутника (телеканал "Ностальгия").
Сэмпл: http://multi-up.com/911422
качество: DVB
формат: MPEG-PS (См. при проблемах с просмотром видео)
Видео: MPEG Video 2, 720x576@768x576 (4:3), 25 fps, ~4800 kbps avg, 0.463 bit/pixel
Аудио: 48 kHz, MPEG Audio 2, 2 ch, ~192.00 kbps avg

MediaInfo

Полное имя                               : H:\My Torrents\[apreder]Andrey_Konchalovskiy_The_Inner_Circle(1993)DVB.mpg
Формат : MPEG-PS
Размер файла : 1,38 Гбайт
Продолжительность : 38 м.
Режим общего битрейта : Переменный
Общий поток : 5093 Кбит/сек
Видео
Идентификатор : 224 (0xE0)
Формат : MPEG Video
Версия формата : Version 2
Профиль формата : Main@Main
Параметр BVOP формата : Да
Параметр матрицы формата : Выборочная
Параметр GOP формата : Variable
Продолжительность : 38 м.
Вид битрейта : Переменный
Битрейт : 4800 Кбит/сек
Ширина : 720 пикселей
Высота : 576 пикселей
Соотношение сторон : 4:3
Частота кадров : 25,000 кадров/сек
Стандарт вещания : PAL
Цветовое пространство : YUV
Субдискретизация насыщенности : 4:2:0
Битовая глубина : 8 бит
Тип развёртки : Чересстрочная
Порядок развёртки : Верхнее поле первое
Метод сжатия : С потерями
Бит/(Пиксели*Кадры) : 0.463
Временной код первого кадра : 00:00:00:00
Оригинал временного кода : Group of pictures header
Размер потока : 1,30 Гбайт (94%)
Аудио
Идентификатор : 192 (0xC0)
Формат : MPEG Audio
Версия формата : Version 1
Профиль формата : Layer 2
Продолжительность : 38 м.
Вид битрейта : Постоянный
Битрейт : 192 Кбит/сек
Каналы : 2 канала
Частота : 48,0 КГц
Метод сжатия : С потерями
Размер потока : 53,3 Мбайт (4%)

Скриншоты


Резервные скриншоты


-1'007/989√
[teatrix.ru].t17717.torrent 
Торрент: Зарегистрирован [ 2016-03-17 00:51 ] · 3191B1C17E3F8769E4D20422B3F3A4E0054FB75B

Скачать .torrent

Скачать

14 KB

Статус: проверено
Скачан: 0 раз
Размер: 1.38 GB
terms.php



Показать сообщения:    

Текущее время: 11-Дек 11:04

Часовой пояс: UTC + 3


Вы не можете начинать темы
Вы не можете отвечать на сообщения
Вы не можете редактировать свои сообщения
Вы не можете удалять свои сообщения
Вы не можете голосовать в опросах
Вы не можете прикреплять файлы к сообщениям
Вы можете скачивать файлы