Майкл: Московская версия / Майкл Джексон. Московское дело 1993: Когда король поп-музыки познакомился с Советами / Michael Jackson, the Moscow Case 1993: When the King of Pop Met the Soviets (Егор Трубников / Egor Trubnikoff) [2011, поп-музыка, DVB]


Статистика раздачи [Обновить пиров]
Размер:  1.19 GB   |    Зарегистрирован:  8 месяцев 23 дня   |    Скачан:  0 раз

Полного источника не было: Никогда

 
   
 
 
 

[Цитировать]

Майкл: Московская версия
Michael Jackson, the Moscow Case 1993- Год выпуска: 2011
Страна: Россия, Франция
Жанр: документальный, поп-музыка
Продолжительность: 00:55:19
Перевод: Субтитры
Русские субтитры: есть
Режиссер: Егор Трубников / Egor TrubnikoffОписание: 15 сентября 1993 года - Майкл Джексон дает свой первый концерт на территории бывшего СССР. Он пробыл в Москве несколько дней, дал концерт под проливным дождем, промаршировал по Красной площади с ротой солдат и пропустил пресс-конференцию по случаю своего приезда - ради поездки в детский дом. Но главное — эта поездка надолго осталась в памяти тех, кто видел великого Майкла совсем близко, остались и видеозаписи, которые полтора десятка лет пылились на полке, и вот теперь наконец сделан теплый документальный фильм. В нём документальные кадры и воспоминания людей, лично видевших Майкла Джексона, говоривших с ним. Эксклюзивные кадры, которые раньше были недоступны для просмотра. (анонс канала "24ДОК")
Доп. информация: Запись со спутника (телеканал "24ДОК"). В отличие от имеющихся на треке релизов, в данной раздаче имеется проф. перевод английской речи в виде вшитых русских субтитров.
Сэмпл: http://multi-up.com/911495
качество: DVB
формат: MPEG-PS (См. при проблемах с просмотром видео)
Видео: MPEG Video 2, 720x576@768x576 (4:3), 25 fps, ~2826 kbps avg, 0.273 bit/pixel
Аудио: 48 kHz, MPEG Audio 2, 2 ch, ~192.00 kbps avg
Формат субтитров: hardsub (неотключаемые) - во время английской речи

MediaInfo

Полное имя                               : H:\My Torrents\[apreder]Michael_Jackson_the_Moscow_Case_1993(2011)DVB.mpg
Формат : MPEG-PS
Размер файла : 1,19 Гбайт
Продолжительность : 55 м.
Режим общего битрейта : Переменный
Общий поток : 3079 Кбит/сек
Видео
Идентификатор : 224 (0xE0)
Формат : MPEG Video
Версия формата : Version 2
Профиль формата : Main@Main
Параметр BVOP формата : Да
Параметр матрицы формата : Выборочная
Параметр GOP формата : Variable
Продолжительность : 55 м.
Вид битрейта : Переменный
Битрейт : 2826 Кбит/сек
Ширина : 720 пикселей
Высота : 576 пикселей
Соотношение сторон : 4:3
Частота кадров : 25,000 кадров/сек
Стандарт вещания : PAL
Цветовое пространство : YUV
Субдискретизация насыщенности : 4:2:0
Битовая глубина : 8 бит
Тип развёртки : Чересстрочная
Порядок развёртки : Верхнее поле первое
Метод сжатия : С потерями
Бит/(Пиксели*Кадры) : 0.273
Временной код первого кадра : 00:00:00:00
Оригинал временного кода : Group of pictures header
Размер потока : 1,09 Гбайт (92%)
Аудио
Идентификатор : 192 (0xC0)
Формат : MPEG Audio
Версия формата : Version 1
Профиль формата : Layer 2
Продолжительность : 55 м.
Вид битрейта : Постоянный
Битрейт : 192 Кбит/сек
Каналы : 2 канала
Частота : 48,0 КГц
Метод сжатия : С потерями
Размер потока : 76,1 Мбайт (6%)

Скриншоты


Резервные скриншоты


-1'009/991√
[teatrix.ru].t17719.torrent 
Торрент: Зарегистрирован [ 2016-03-17 00:51 ] · 2E29A9293A216FB19271CA1490F650B280604D25

Скачать .torrent

Скачать

12 KB

Статус: проверено
Скачан: 0 раз
Размер: 1.19 GB
terms.php



Быстрый ответ

Имя:

      
Для отправки сообщений необходимо включить JavaScript
Показать сообщения:    

Текущее время: 09-Дек 22:26

Часовой пояс: UTC + 3


Вы можете начинать темы
Вы можете отвечать на сообщения
Вы не можете редактировать свои сообщения
Вы не можете удалять свои сообщения
Вы не можете голосовать в опросах
Вы не можете прикреплять файлы к сообщениям
Вы можете скачивать файлы