Иерусалимские истории / Иерусалимская синематека / Frictions a Jerusalem / F(r)ictions à Jérusalem (Ева Бертуан / Eva Bertoin) [2012, документальный, кинематограф, DVB] Original (Fre) + Sub (ru hard)


Статистика раздачи [Обновить пиров]
Размер:  1.49 GB   |    Зарегистрирован:  10 месяцев 6 дней   |    Скачан:  0 раз

Полного источника не было: Никогда

 
   
 
 
 

[Цитировать]

Иерусалимские истории
F(r)ictions à Jérusalem- Год выпуска: 2012
Страна: Франция, Израиль
Жанр: документальный, кинематограф
Продолжительность: 00:51:53
Перевод: Субтитры (перевод И. Рыбкиной, Éclair Group)
Русские субтитры: есть
Режиссер: Ева Бертуан / Eva BertoinОписание: Иерусалимская синематека — один из ведущих культурных центов Израиля, целью которого является развитие и сохранение кинематографа. Она была основана в 1973 г. Лией ван Лир. Первоначально она располагалась в Бейт-Агрон в центре Иерусалима. Новое здание Синематики с видом на стены Старого города был открыто в 1981 г. при финансовой поддержке Фонда семьи Островских, Тедди Колека, Иерусалимского фонда, Фонда ван Лир и частных спонсоров.
В дополнение к кинозалам Синематека размещает израильский архив фильмов с 1920-х годов до сегодняшнего дня, коллекцию кинохроники Натана Аксельрода, мультимедиа-исследовательский центр Холокоста Джоан Сораски-Константинер, образовательный факультет по кинематографии и СМИ и фильмотеку Лью и Эди Вассерманов.
Главными мероприятиями Иерусалимской синематики являются Международный кинофестиваль, который проходит в июле каждого года, и Еврейский кинофестиваль, который проходит каждый год в декабре во время праздника Ханука.
Доп. информация: Запись со спутника (телеканал TV5MONDE). Во время нефранцузской речи на экране дополнительно вшитые французские субтитры.
Участник Festival International du Film Oriental de Genève (FIFOG) 2013.
Сэмпл: http://multi-up.com/911549
качество: DVB
формат: MPEG-PS (См. при проблемах с просмотром видео)
Видео: MPEG Video 2, 720x576@1024x576 (16:9), 25 fps, ~3837 kbps avg, 0.370 bit/pixel
Аудио: Французский (48 kHz, MPEG Audio 2, 2 ch, ~192.00 kbps avg)
Формат субтитров: hardsub (неотключаемые)

MediaInfo

Полное имя                               : H:\My Torrents\[apreder]F(r)ictions_a_Jerusalem(2012)DVB.mpg
Формат : MPEG-PS
Размер файла : 1,49 Гбайт
Продолжительность : 51 м.
Режим общего битрейта : Переменный
Общий поток : 4111 Кбит/сек
Видео
Идентификатор : 224 (0xE0)
Формат : MPEG Video
Версия формата : Version 2
Профиль формата : Main@Main
Параметр BVOP формата : Да
Параметр матрицы формата : Выборочная
Параметр GOP формата : M=3, N=24
Продолжительность : 51 м.
Вид битрейта : Переменный
Битрейт : 3837 Кбит/сек
Ширина : 720 пикселей
Высота : 576 пикселей
Соотношение сторон : 16:9
Частота кадров : 25,000 кадров/сек
Стандарт вещания : PAL
Цветовое пространство : YUV
Субдискретизация насыщенности : 4:2:0
Битовая глубина : 8 бит
Метод сжатия : С потерями
Бит/(Пиксели*Кадры) : 0.370
Временной код первого кадра : 00:00:00:00
Оригинал временного кода : Group of pictures header
Размер потока : 1,39 Гбайт (93%)
Аудио
Идентификатор : 192 (0xC0)
Формат : MPEG Audio
Версия формата : Version 1
Профиль формата : Layer 2
Продолжительность : 51 м.
Вид битрейта : Постоянный
Битрейт : 192 Кбит/сек
Каналы : 2 канала
Частота : 48,0 КГц
Метод сжатия : С потерями
Размер потока : 71,3 Мбайт (5%)

Скриншоты


Скриншоты - резерв


-1'010/992√
[teatrix.ru].t17721.torrent 
Торрент: Зарегистрирован [ 2016-03-17 00:51 ] · CE0B866500635190ECB8CDFF2811CD4249DB241E

Скачать .torrent

Скачать

15 KB

Статус: проверено
Скачан: 0 раз
Размер: 1.49 GB
terms.php



Показать сообщения:    

Текущее время: 24-Янв 00:02

Часовой пояс: UTC + 3


Вы не можете начинать темы
Вы не можете отвечать на сообщения
Вы не можете редактировать свои сообщения
Вы не можете удалять свои сообщения
Вы не можете голосовать в опросах
Вы не можете прикреплять файлы к сообщениям
Вы можете скачивать файлы