Jonathan Urla - Yogilates Basic 1 & Intermediate 1 [2007 г., фитнес, пилатес, DVDRip, ENG] (Видеоурок)


Статистика раздачи [Обновить пиров]
Размер:  774 MB   |    Зарегистрирован:  8 месяцев 22 дня   |    Скачан:  0 раз

Полного источника не было: Никогда

 
   
 
 
 

[Цитировать]

Джонатан Урла / Jonathan Urla
Yogilates Basic 1 & Intermediate 1
- Год выпуска: 2007
Страна: UК
Жанр: фитнес, пилатес
Продолжительность: 00:28:56 + 00:32:18
Язык: Английский-Описание:
Йогилатес - это вершина разумного фитнеса! Он берет все лучшее из йоги и пилатеса и соединяет это в сбалансированный комплекс упражнений. Вводя более точное осознавание дыхания и мышц ,"центра", йогилатес развивает функциональную силу всего тела. Творческий, но основанный на традициях и классических упражнениях, йогилатес представляет собой эволюцию в самостоятельной практике для всех, кто пытается восстановиться после травм, достичь баланса в развитии мышц и развить новые навыки.-Basic 1 - Созданная сертифицированным инструктором йоги и пилатеса Джонатаном Урла, эта программа подходит людям всех возрастов и любого уровня физической подготовки. Начните с самого начала с одним из лучших инструкторов!
Intermediate 1 - Йогилатес укрепит ваш "центр", выровняет и удлинит ваше тело, разовьет гибкость так, как не сделает ни одна другая техника. Присоединяйтесь к Джонатану Урла в этой укрепляющей ,"центр" последовательности.-
-Качество: DVDRip
Формат: AVI
Видео: XviD, 640x480 (1.33:1), 1 716 Kbps, 25.000 fps, 0.25 b/px
Аудио: MPEG-1 Audio layer 3, 128 Kbps, CBR, 48.0 KHz, 2 ch.
-
ДополнительноОчень надеялась, что данное видео - Yogilates 1 и Yogilates 2...
Но, судя по заявленной на амазоне продолжительности, данный релиз не имеет отношения к долгожданным видео...
В любом случае, считаю, что видео с Джонатаном представляет интерес, какое бы название оно не носило...

-Данные части DVD не включены в релиз
-Аннотация на англ. языке
Yogilates® is the ultimate in mind body fitness. It takes the best of yoga and the best of Pilates and integrates them into one balanced system of exercise. Incorporating a refined awareness of the breath and the core, Yogilates® educates as it creates functional strength for the body. Creative, yet grounded in tradition, it represents an evolution in self-practice for anyone looking to recover from injury, correct imbalances in muscular develpmment, gain new skills, and train for improved performance.

Отчет MI DVD

Complete name                    : \Jonathan Urla-Yogilates Basic & Intermediate and The Method 20_20 Integrated Yoga\VIDEO_TS\VTS_01_1.VOB
Format : MPEG-PS
File size : 1 024 MiB
Duration : 1h 14mn
Overall bit rate : 1 930 Kbps
Video
ID : 224 (0xE0)
Format : MPEG Video
Format version : Version 2
Format profile : Main@Main
Format settings, BVOP : Yes
Format settings, Matrix : Default
Format settings, GOP : M=3, N=15
Duration : 1h 14mn
Bit rate mode : Variable
Bit rate : 1 635 Kbps
Nominal bit rate : 8 300 Kbps
Width : 720 pixels
Height : 480 pixels
Display aspect ratio : 4:3
Frame rate : 29.970 fps
Standard : NTSC
Color space : YUV
Chroma subsampling : 4:2:0
Bit depth : 8 bits
Scan type : Interlaced
Scan order : Top Field First
Bits/(Pixel*Frame) : 0.158
Stream size : 868 MiB (85%)
Audio
ID : 128 (0x80)
Format : AC-3
Format/Info : Audio Coding 3
Mode extension : CM (complete main)
Duration : 1h 14mn
Bit rate mode : Constant
Bit rate : 256 Kbps
Channel(s) : 2 channels
Channel positions : Front: L R
Sampling rate : 48.0 KHz
Bit depth : 16 bits
Video delay : -67ms
Stream size : 136 MiB (13%)
Menu
За перевод аннотации спасибо Елена232425Релиз от группы
[teatrix.ru].t17738.torrent 
Торрент: Зарегистрирован [ 2016-03-17 00:52 ] · BAF13D726E57C27F0B6D8056841D29431D3B0B38

Скачать .torrent

Скачать

16 KB

Статус: проверено
Скачан: 0 раз
Размер: 774 MB
terms.php



Быстрый ответ

Имя:

      
Для отправки сообщений необходимо включить JavaScript
Показать сообщения:    

Текущее время: 08-Дек 09:02

Часовой пояс: UTC + 3


Вы можете начинать темы
Вы можете отвечать на сообщения
Вы не можете редактировать свои сообщения
Вы не можете удалять свои сообщения
Вы не можете голосовать в опросах
Вы не можете прикреплять файлы к сообщениям
Вы можете скачивать файлы