Николас Виндинг Рефн / NWR (Nicolas Winding Refn) (Лоран Дюрош / Laurent Duroche) [2011, документальный, фильм-портрет, кинематограф, DVB] DVO (Селена Интернешнл)


Статистика раздачи [Обновить пиров]
Размер:  1.2 GB   |    Зарегистрирован:  8 месяцев 24 дня   |    Скачан:  0 раз

Полного источника не было: Никогда

 
   
 
 
 

[Цитировать]

Николас Виндинг Рефн
NWR (Nicolas Winding Refn)- Год выпуска: 2011
Страна: Франция, США
Жанр: документальный, фильм-портрет, кинематограф
Продолжительность: 01:04:50
Перевод: Профессиональный (двухголосый закадровый) (Кинокомпания "Селена Интернешнл" по закату телеканала "24ДОК")
Русские субтитры: нет
Режиссер: Лоран Дюрош / Laurent Duroche
В ролях: Николас Виндинг Рефн / Nicolas Winding Refn, Алехандро Ходоровски / Alejandro Jodorowsky, Гаспар Ноэ / Gaspar Noé, Мэттью Ньюман / Matthew Newman, Мадс Миккельсен / Mads Mikkelsen, Райан Гослинг / Ryan Gosling
Описание: Французский журналист Лорен Дюрош снял документальный фильм об экстраординарном датчанине Николасе Виндинг Рефне ("Пушер", "Бронсон", "Драйв", "Бог простит"), который получил приз за лучшую режиссуру в Каннах в 2011. Фильм-портрет основан на беседах журналиста и режиссёра периода 2008-2011 гг, и по сообщениям создателей должен дать зрителю ключ к понимаю кинематографической Вселенной Рефна. (анонс канала "24ДОК")
Доп. информация: Запись со спутника (телеканал "24ДОК"). Вшитые французские субтитры.
Участник Festival Ciné Nordica 2013.
Информация: http://www.imdb.com/title/tt2188835/
Сэмпл: http://multi-up.com/912042
качество: DVB
формат: MPEG-PS (См. при проблемах с просмотром видео)
Видео: MPEG Video 2, 720x576@768x576 (4:3), 25 fps, ~2394 kbps avg, 0.231 bit/pixel
Аудио: 48 kHz, MPEG Audio 2, 2 ch, ~192.00 kbps avg)
Формат субтитров: hardsub (неотключаемые) - французские

MediaInfo

Полное имя                               : H:\My Torrents\[apreder]NWR_Nicolas_Winding_Refn(2011)DVB.mpg
Формат : MPEG-PS
Размер файла : 1,20 Гбайт
Продолжительность : 1 ч. 4 м.
Режим общего битрейта : Переменный
Общий поток : 2638 Кбит/сек
Видео
Идентификатор : 224 (0xE0)
Формат : MPEG Video
Версия формата : Version 2
Профиль формата : Main@Main
Параметр BVOP формата : Да
Параметр матрицы формата : Выборочная
Параметр GOP формата : Variable
Продолжительность : 1 ч. 4 м.
Вид битрейта : Переменный
Битрейт : 2394 Кбит/сек
Ширина : 720 пикселей
Высота : 576 пикселей
Соотношение сторон : 4:3
Частота кадров : 25,000 кадров/сек
Стандарт вещания : PAL
Цветовое пространство : YUV
Субдискретизация насыщенности : 4:2:0
Битовая глубина : 8 бит
Тип развёртки : Чересстрочная
Порядок развёртки : Верхнее поле первое
Метод сжатия : С потерями
Бит/(Пиксели*Кадры) : 0.231
Временной код первого кадра : 00:00:00:00
Оригинал временного кода : Group of pictures header
Размер потока : 1,08 Гбайт (91%)
Аудио
Идентификатор : 192 (0xC0)
Формат : MPEG Audio
Версия формата : Version 1
Профиль формата : Layer 2
Продолжительность : 1 ч. 4 м.
Вид битрейта : Постоянный
Битрейт : 192 Кбит/сек
Каналы : 2 канала
Частота : 48,0 КГц
Метод сжатия : С потерями
Размер потока : 89,1 Мбайт (7%)

Скриншоты


Резервные скриншоты


-1'011/993√
[teatrix.ru].t17747.torrent 
Торрент: Зарегистрирован [ 2016-03-17 00:50 ] · 08223B72AF959B201E2C8A7BAC509AF2813BEFE6

Скачать .torrent

Скачать

12 KB

Статус: проверено
Скачан: 0 раз
Размер: 1.2 GB
terms.php



Показать сообщения:    

Текущее время: 10-Дек 08:06

Часовой пояс: UTC + 3


Вы не можете начинать темы
Вы не можете отвечать на сообщения
Вы не можете редактировать свои сообщения
Вы не можете удалять свои сообщения
Вы не можете голосовать в опросах
Вы не можете прикреплять файлы к сообщениям
Вы можете скачивать файлы