Ольга Круподерова - Аэро - шейп [2005 г., Бодифлекс, калланетика, йога, танец живота, DVDRip] (Видеоурок)


Статистика раздачи [Обновить пиров]
Размер:  1.09 GB   |    Зарегистрирован:  8 месяцев 23 дня   |    Скачан:  1 раз

Полного источника не было: 4 месяца 14 дней

 
   
 
 
 

[Цитировать]

Ольга Круподерова - Аэро - шейп
Самая результативная программа для похудения-
Страна: Россия
Тематика: Бодифлекс, каланетика, йога, танец живота
Тип раздаваемого материала: Видеоурок
Год выпуска: 2005
Продолжительность: 01:12:32
Язык: русский-Описание:
"Приветствую вас, Меня зовут Круподерова Ольга Вячеславовна.
Я - директор Волгоградского Фитнес - клуба "Ольга". Наш клуб несколько лет преподает новую фитнес программу, разработанную нами специально для наших клиентов и которую я хотела бы предложить вам. Данный Видео - Курс был разработан на основании исследований воздействия кислорода и, в частности, аэробного дыхания на организм человека и процесс похудения.
Аэробное дыхание (кислородный недостаток и переизбыток), калланетика и лучшие позы из йоги, а так же движения из танца живота, которые способствуют уменьшению талии, лучшему пищеварению и тренировке женских мышц - вот основа нашего комплекса, получившего название "Аэро-Шейп".
Результаты этого комплекса говорят сами за себя. Похудение: минимум З см, максимум 10 см в месяц при занятиях 3 раза в неделю, оздоровление спины, избавление от остеохондрозных болей, жировиков, одышки, артрита, скачков давления, хронических бронхитов, воспаления женских органов, излечение бесплодия (за последние полгода трое беременных, ранее не имевших возможности родить из-за воспаления или гормонального сбоя, благополучно справились с недугом), а так же улучшение состояния "мышц любви", что положительно отражается на сексуальной жизни женщин.
Так же в комплекс включены медитации, направленные на привлечение любви в свою жизнь и поиск идеального партнера, усиление привлекательности и притягивания в свою жизнь денег.-Уровень: начальный / средний-Качество: DVDRip, Формат: AVI
Видео : XviD, 640 x 480, 4/3, 1 951 Kbps, 25 fps, 0.25 b/px
Аудио 1: AC3 Dolby Digital, 192 Kbps, CBR, 48.0 KHz, 2 ch. RUS

Скриншоты видео


Дополнительно...
Насколько смогла понять из информации в сети, Круподерова Ольга (Amany) принадлежит миру BellyDance

Отчет MI DVD

Complete name                    : \AS\VIDEO_TS\VTS_01_1.VOB
Format                           : MPEG-PS
File size                        : 1 024 MiB
Duration                         : 22mn 39s
Overall bit rate                 : 6 315 Kbps
[br]
Video
ID                               : 224 (0xE0)
Format                           : MPEG Video
Format version                   : Version 2
Format profile                   : Main@Main
Format settings, BVOP            : Yes
Format settings, Matrix          : Default
Format settings, GOP             : M=3, N=12
Duration                         : 22mn 39s
Bit rate mode                    : Variable
Bit rate                         : 5 997 Kbps
Nominal bit rate                 : 8 000 Kbps
Width                            : 720 pixels
Height                           : 576 pixels
Display aspect ratio             : 4:3
Frame rate                       : 25.000 fps
Standard                         : PAL
Color space                      : YUV
Chroma subsampling               : 4:2:0
Bit depth                        : 8 bits
Scan type                        : Interlaced
Scan order                       : Bottom Field First
Bits/(Pixel*Frame)               : 0.578
Stream size                      : 972 MiB (95%)
[br]
Audio
ID                               : 128 (0x80)
Format                           : AC-3
Format/Info                      : Audio Coding 3
Mode extension                   : CM (complete main)
Duration                         : 22mn 39s
Bit rate mode                    : Constant
Bit rate                         : 192 Kbps
Channel(s)                       : 2 channels
Channel positions                : Front: L R
Sampling rate                    : 48.0 KHz
Bit depth                        : 16 bits
Stream size                      : 31.1 MiB (3%)
[br]
Menu
Спасибо Карандаш_1991 за DVD5Релиз от группы
[teatrix.ru].t17748.torrent 
Торрент: Зарегистрирован [ 2016-03-17 00:52 ] · 28B512C117B4BE3AF9F69981561634DDD6184021

Скачать .torrent

Скачать

11 KB

Статус: проверено
Скачан: 1 раз
Размер: 1.09 GB
terms.php



Быстрый ответ

Имя:

      
Для отправки сообщений необходимо включить JavaScript
Показать сообщения:    

Текущее время: 09-Дек 08:54

Часовой пояс: UTC + 3


Вы можете начинать темы
Вы можете отвечать на сообщения
Вы не можете редактировать свои сообщения
Вы не можете удалять свои сообщения
Вы не можете голосовать в опросах
Вы не можете прикреплять файлы к сообщениям
Вы можете скачивать файлы