(Classical, Baroque, Authentic, Wind) Georg Philipp Telemann - Wind Concertos. Vol. 1 [La Stagione Frankfurt, Camerata Koln, Michael Schneider], CPO 2007, FLAC (image+.cue), lossless


Статистика раздачи [Обновить пиров]
Размер:  258 MB   |    Зарегистрирован:  8 месяцев 24 дня   |    Скачан:  0 раз

Полного источника не было: 5 дней

 
   
 
 
 

[Цитировать]

Georg Philipp TelemannConcerti per strumenti a fiato. Tomo Primo.
TWV 43:g3, 51:d1, 51:E1, 52:D2, 52:e1

Концерты для духовых. Том Первый.-- Жанр: Classical, Baroque, Authentic, Wind
Страна-производитель диска: Germany
Год издания: 2007
Лейбл: CPO
Номер в каталоге: CPO 777 032-2
Аудиокодек: FLAC
Тип рипа: image+.cue
Битрейт аудио: lossless
Продолжительность: 00:55:25
Наличие сканов: имеются
Источник: релизёр
LOSSY
-La Stagione Frankfurt e Camerata Köln
Michael Schneider direttore e flautista
Ulrich Hübner e Jörg Schulteß cornisti
Karl Kaiser flautista
Luise Baumgartl oboista

Треклист

01.TWV 52:D2 - Concerto in Re maggiore per due corni, archi e basso continuo - I. Spirituoso, ma non presto [00:01:56]
02.II. Largo [00:00:43]
03.III. Allegro [00:01:36]
04.IV. Largo [00:01:44]
05.V. Allegro assai [00:02:04]
06.TWV 52:e1 - Concerto in Mi minore per flauto dolce, flauto traversiere, archi e basso continuo - I. Largo [00:03:45]
07.II. Allegro [00:03:57]
08.III. Largo [00:03:27]
09.IV. Presto [00:02:42]
10.TWV 51:d1 - Concerto in Re minore per oboe, archi e basso continuo - I. Adagio [00:01:55]
11.II. [Allegro] [00:03:07]
12.III. Adagio [00:00:59]
13.IV. [Allegro] [00:02:07]
14.TWV 43:g3 - Concerto in Sol minore per flauto dolce, due violini e basso continuo - I. [Allegro] [00:03:12]
15.II. Siciliana [00:04:35]
16.III. Bouré [00:01:16]
17.IV. Menuet e Trio [00:03:54]
18.TWV 51:E1 - Concerto in Mi maggiore per flauto traversiere, archi e basso continuo - I. Dolce e staccato [00:03:14]
19.II. Alla breve [00:03:37]
20.III. Largo [00:02:16]
21.IV. Vivace [00:03:08]

LOG EAC

Exact Audio Copy V1.0 beta 3 from 29. August 2011
La Stagione Frankfurt e Camerata Koln / Telemann. Concerti per strumenti a fiato. Tomo Primo [CPO 2007].
Used drive : TSSTcorpCDDVDW SH-222BB Adapter: 2 ID: 1
Read mode : Secure
Utilize accurate stream : Yes
Defeat audio cache : Yes
Make use of C2 pointers : No
Read offset correction : 6
Overread into Lead-In and Lead-Out : No
Fill up missing offset samples with silence : Yes
Delete leading and trailing silent blocks : No
Null samples used in CRC calculations : Yes
Used interface : Native Win32 interface for Win NT & 2000
Used output format : User Defined Encoder
Selected bitrate : 1024 kBit/s
Quality : High
Add ID3 tag : No
Command line compressor : C:\Program Files\Exact Audio Copy\Flac\flac.exe
Additional command line options : -8 -V -T "TITLE=%title%" -T "ARTIST=%artist%" -T "ALBUMARTIST=%albumartist%" -T "ALBUM=%albumtitle%" -T "DATE=%year%" -T "TRACKNUMBER=%tracknr%" -T "TRACKTOTAL=%numtracks%" -T "GENRE=%genre%" -T "COMMENT=%comment%" -T "PERFORMER=%albuminterpret%" -T "COMPOSER=%composer%" %source% -o %dest%
TOC of the extracted CD
Track | Start | Length | Start sector | End sector
---------------------------------------------------------
1 | 0:00.00 | 1:56.71 | 0 | 8770
2 | 1:56.71 | 0:43.34 | 8771 | 12029
3 | 2:40.30 | 1:36.58 | 12030 | 19287
4 | 4:17.13 | 1:44.27 | 19288 | 27114
5 | 6:01.40 | 2:04.42 | 27115 | 36456
6 | 8:06.07 | 3:45.51 | 36457 | 53382
7 | 11:51.58 | 3:57.68 | 53383 | 71225
8 | 15:49.51 | 3:27.13 | 71226 | 86763
9 | 19:16.64 | 2:42.47 | 86764 | 98960
10 | 21:59.36 | 1:55.19 | 98961 | 107604
11 | 23:54.55 | 3:07.34 | 107605 | 121663
12 | 27:02.14 | 0:59.13 | 121664 | 126101
13 | 28:01.27 | 2:07.09 | 126102 | 135635
14 | 30:08.36 | 3:12.66 | 135636 | 150101
15 | 33:21.27 | 4:35.65 | 150102 | 170791
16 | 37:57.17 | 1:16.07 | 170792 | 176498
17 | 39:13.24 | 3:54.08 | 176499 | 194056
18 | 43:07.32 | 3:14.43 | 194057 | 208649
19 | 46:22.00 | 3:37.31 | 208650 | 224955
20 | 49:59.31 | 2:16.50 | 224956 | 235205
21 | 52:16.06 | 3:08.20 | 235206 | 249325
Range status and errors
Selected range
Filename D:\ Telemann / Telemann. Concerti per strumenti a fiato. Tomo Primo [CPO 2007] \ Telemann. Concerti per strumenti a fiato. Tomo Primo [CPO 2007].wav
Peak level 92.3 %
Extraction speed 7.0 X
Range quality 99.9 %
Test CRC 1C1590C5
Copy CRC 1C1590C5
Copy OK
No errors occurred
AccurateRip summary
Track 1 accurately ripped (confidence 3) [915F19D8] (AR v2)
Track 2 accurately ripped (confidence 3) [DF80CF93] (AR v2)
Track 3 accurately ripped (confidence 3) [E515F7EB] (AR v2)
Track 4 accurately ripped (confidence 3) [BDB52BE2] (AR v2)
Track 5 accurately ripped (confidence 3) [BED056DB] (AR v2)
Track 6 accurately ripped (confidence 3) [CC3D9E73] (AR v2)
Track 7 accurately ripped (confidence 3) [9F6FF57D] (AR v2)
Track 8 accurately ripped (confidence 3) [E5D89BC8] (AR v2)
Track 9 accurately ripped (confidence 3) [F452CCE8] (AR v2)
Track 10 accurately ripped (confidence 3) [DC4FAD3B] (AR v2)
Track 11 accurately ripped (confidence 3) [AA35FB61] (AR v2)
Track 12 accurately ripped (confidence 3) [3D2FEB8E] (AR v2)
Track 13 accurately ripped (confidence 3) [CB4046DF] (AR v2)
Track 14 accurately ripped (confidence 3) [C28F0674] (AR v2)
Track 15 accurately ripped (confidence 3) [80317231] (AR v2)
Track 16 accurately ripped (confidence 3) [FB702A59] (AR v2)
Track 17 accurately ripped (confidence 3) [9461492B] (AR v2)
Track 18 accurately ripped (confidence 3) [79FC76CF] (AR v2)
Track 19 accurately ripped (confidence 3) [4891C6A6] (AR v2)
Track 20 accurately ripped (confidence 3) [352248ED] (AR v2)
Track 21 accurately ripped (confidence 3) [CBB7FC2B] (AR v2)
All tracks accurately ripped
End of status report

.CUE

REM GENRE Musica barocca
REM DISCID 150CFC15
REM COMMENT "TitoManlio"
TITLE "Telemann. Concerti per strumenti a fiato. Tomo Primo [CPO 2007]."
FILE "Telemann. Concerti per strumenti a fiato. Tomo Primo [CPO 2007].flac" WAVE
TRACK 01 AUDIO
TITLE "Concerto TWV 52:D2 in Re maggiore per due corni, archi e basso continuo - I. Spirituoso, ma non presto"
PERFORMER "La Stagione Frankfurt, Michael Schneider [direttore], Ulrich Hübner e Jörg Schulteß [cornisti]"
FLAGS DCP
INDEX 01 00:00:00
TRACK 02 AUDIO
TITLE "Concerto TWV 52:D2 in Re maggiore per due corni, archi e basso continuo - II. Largo"
PERFORMER "La Stagione Frankfurt, Michael Schneider [direttore], Ulrich Hübner e Jörg Schulteß [cornisti]"
FLAGS DCP
INDEX 01 01:56:71
TRACK 03 AUDIO
TITLE "Concerto TWV 52:D2 in Re maggiore per due corni, archi e basso continuo - III. Allegro"
PERFORMER "La Stagione Frankfurt, Michael Schneider [direttore], Ulrich Hübner e Jörg Schulteß [cornisti]"
FLAGS DCP
INDEX 01 02:40:30
TRACK 04 AUDIO
TITLE "Concerto TWV 52:D2 in Re maggiore per due corni, archi e basso continuo - IV. Largo"
PERFORMER "La Stagione Frankfurt, Michael Schneider [direttore], Ulrich Hübner e Jörg Schulteß [cornisti]"
FLAGS DCP
INDEX 01 04:17:13
TRACK 05 AUDIO
TITLE "Concerto TWV 52:D2 in Re maggiore per due corni, archi e basso continuo - V. Allegro assai"
PERFORMER "La Stagione Frankfurt, Michael Schneider [direttore], Ulrich Hübner e Jörg Schulteß [cornisti]"
FLAGS DCP
INDEX 01 06:01:40
TRACK 06 AUDIO
TITLE "Concerto TWV 52:e1 in Mi minore per flauto dolce, flauto traversiere, archi e basso continuo - I. Largo"
PERFORMER "La Stagione Frankfurt, Michael Schneider [direttore e flautista], Karl Kaiser [flautista]"
FLAGS DCP
INDEX 00 08:00:50
INDEX 01 08:06:07
TRACK 07 AUDIO
TITLE "Concerto TWV 52:e1 in Mi minore per flauto dolce, flauto traversiere, archi e basso continuo - II. Allegro"
PERFORMER "La Stagione Frankfurt, Michael Schneider [direttore e flautista], Karl Kaiser [flautista]"
FLAGS DCP
INDEX 01 11:51:58
TRACK 08 AUDIO
TITLE "Concerto TWV 52:e1 in Mi minore per flauto dolce, flauto traversiere, archi e basso continuo - III. Largo"
PERFORMER "La Stagione Frankfurt, Michael Schneider [direttore e flautista], Karl Kaiser [flautista]"
FLAGS DCP
INDEX 01 15:49:51
TRACK 09 AUDIO
TITLE "Concerto TWV 52:e1 in Mi minore per flauto dolce, flauto traversiere, archi e basso continuo - IV. Presto"
PERFORMER "La Stagione Frankfurt, Michael Schneider [direttore e flautista], Karl Kaiser [flautista]"
FLAGS DCP
INDEX 01 19:16:64
TRACK 10 AUDIO
TITLE "Concerto TWV 51:d1 in Re minore per oboe, archi e basso continuo - I. Adagio"
PERFORMER "La Stagione Frankfurt, Michael Schneider [direttore], Luise Baumgartl [oboista]"
FLAGS DCP
INDEX 00 21:53:41
INDEX 01 21:59:36
TRACK 11 AUDIO
TITLE "Concerto TWV 51:d1 in Re minore per oboe, archi e basso continuo - II. [Allegro]"
PERFORMER "La Stagione Frankfurt, Michael Schneider [direttore], Luise Baumgartl [oboista]"
FLAGS DCP
INDEX 01 23:54:55
TRACK 12 AUDIO
TITLE "Concerto TWV 51:d1 in Re minore per oboe, archi e basso continuo - III. Adagio"
PERFORMER "La Stagione Frankfurt, Michael Schneider [direttore], Luise Baumgartl [oboista]"
FLAGS DCP
INDEX 01 27:02:14
TRACK 13 AUDIO
TITLE "Concerto TWV 51:d1 in Re minore per oboe, archi e basso continuo - IV. [Allegro]"
PERFORMER "La Stagione Frankfurt, Michael Schneider [direttore], Luise Baumgartl [oboista]"
FLAGS DCP
INDEX 01 28:01:27
TRACK 14 AUDIO
TITLE "Concerto TWV 43:g3 in Sol minore per flauto dolce, due violini e basso continuo - I. [Allegro]"
PERFORMER "Camerata Köln, Michael Schneider [direttore e flautista]"
FLAGS DCP
INDEX 00 30:02:28
INDEX 01 30:08:36
TRACK 15 AUDIO
TITLE "Concerto TWV 43:g3 in Sol minore per flauto dolce, due violini e basso continuo - II. Siciliana"
PERFORMER "Camerata Köln, Michael Schneider [direttore e flautista]"
FLAGS DCP
INDEX 01 33:21:27
TRACK 16 AUDIO
TITLE "Concerto TWV 43:g3 in Sol minore per flauto dolce, due violini e basso continuo - III. Bouré"
PERFORMER "Camerata Köln, Michael Schneider [direttore e flautista]"
FLAGS DCP
INDEX 01 37:57:17
TRACK 17 AUDIO
TITLE "Concerto TWV 43:g3 in Sol minore per flauto dolce, due violini e basso continuo - IV. Menuet e Trio"
PERFORMER "Camerata Köln, Michael Schneider [direttore e flautista]"
FLAGS DCP
INDEX 01 39:13:24
TRACK 18 AUDIO
TITLE "Concerto TWV 51:E1 in Mi maggiore per flauto traversiere, archi e basso continuo - I. Dolce e staccato"
PERFORMER "La Stagione Frankfurt, Michael Schneider [direttore], Karl Kaiser [flautista]"
FLAGS DCP
INDEX 00 43:01:54
INDEX 01 43:07:32
TRACK 19 AUDIO
TITLE "Concerto TWV 51:E1 in Mi maggiore per flauto traversiere, archi e basso continuo - II. Alla breve"
PERFORMER "La Stagione Frankfurt, Michael Schneider [direttore], Karl Kaiser [flautista]"
FLAGS DCP
INDEX 01 46:22:00
TRACK 20 AUDIO
TITLE "Concerto TWV 51:E1 in Mi maggiore per flauto traversiere, archi e basso continuo - III. Largo"
PERFORMER "La Stagione Frankfurt, Michael Schneider [direttore], Karl Kaiser [flautista]"
FLAGS DCP
INDEX 01 49:59:31
TRACK 21 AUDIO
TITLE "Concerto TWV 51:E1 in Mi maggiore per flauto traversiere, archi e basso continuo - IV. Vivace"
PERFORMER "La Stagione Frankfurt, Michael Schneider [direttore], Karl Kaiser [flautista]"
FLAGS DCP
INDEX 01 52:16:06
--
[teatrix.ru].t17757.torrent 
Торрент: Зарегистрирован [ 2016-03-17 00:50 ] · 74D9F5FE1810BE011668AF87FD5CDBFCFA9F5ABD

Скачать .torrent

Скачать

12 KB

Статус: проверено
Скачан: 0 раз
Размер: 258 MB
terms.php



Быстрый ответ

Имя:

      
Для отправки сообщений необходимо включить JavaScript
Показать сообщения:    

Текущее время: 10-Дек 06:08

Часовой пояс: UTC + 3


Вы можете начинать темы
Вы можете отвечать на сообщения
Вы не можете редактировать свои сообщения
Вы не можете удалять свои сообщения
Вы не можете голосовать в опросах
Вы не можете прикреплять файлы к сообщениям
Вы можете скачивать файлы