(Classical/Vocal/Lied) Franz Schubert - Kennst du das Land? - Lieder und Klavierstucke (Johannette Zomer, Arthur Schoonderwoerd) Alpha 044 - 2003, FLAC (image+.cue) lossless


 

[Цитировать]

Franz Schubert - Kennst du das Land? - Johannette Zomer, Arthur Schoonderwoerd
Жанр: Classical/Vocal/Lied
Страна-производитель диска: EU
Год издания диска: 2003
Издатель (лейбл): Alpha
Номер по каталогу: 044
Дата записи: 2003
Аудиокодек: FLAC
Тип рипа: image+.cue
Битрейт аудио: lossless
Продолжительность: 64'58
Источник: собственный рип
Наличие сканов в содержимом раздачи: да
Треклист:
Franz Schubert (1797-1828)
01. Fantaisie en do mineur, D 2 E (1811) [0:06:10.21]
02. Suleika, op.14 (1819) [0:05:36.09]
03. Suleikas zweiter Gesang, op.31 (1822) [0:05:19.58]
04. Menuet en La Majeur, D 334 (1815) [0:02:33.37]
05. Ellens erster Gesang, op.52 Nr.1 (1825) [0:08:08.53]
06. Ellens zweiter Gesang, op.52 Nr.2 (1825) [0:02:45.69]
07. Ellens dritter Gesang (Hymne an die Jungfrau, "Ave Maria!"), op.52 Nr.6 (1825) [0:06:53.41]
08. Adagio en Sol Majeur, D 178 (1815) [0:05:44.08]
09. Gretchen am Spinnrade, op.2 (1814) [0:03:29.18]
10. Menuet en la mineur, D 277 A (1815) [0:03:41.04]
11. Mignon's Gesang (1815) [0:03:58.06]
12. Lied der Mignon, op.62 Nr.2 (1826) [0:04:08.66]
13. Lied der Mignon, op.62 Nr.4 (1826) [0:03:19.39]
14. Lied der Mignon, op.62 Nr.3 (1826) [0:03:07.05]
Исполнители:
Johannette Zomer, soprano
Arthur Schoonderwoerd, pianoforte (replica Anton Walter, 1800)

Лог создания рипа

Exact Audio Copy V1.0 beta 3 from 29. August 2011
Отчёт EAC об извлечении, выполненном 12. октября 2013, 0:34
Johannette Zomer, Arthur Schoonderwoerd / Kennst du das Land? - Lieder und Klavierstücke von Franz Schubert
Дисковод: HL-DT-STDVDRAM GT33N Adapter: 1 ID: 0
Режим чтения : Достоверность
Использование точного потока : Да
Отключение кэша аудио : Да
Использование указателей C2 : Нет
Коррекция смещения при чтении : 103
Способность читать области Lead-in и Lead-out : Нет
Заполнение пропущенных сэмплов тишиной : Да
Удаление блоков с тишиной в начале и конце : Нет
При вычислениях CRC использовались нулевые сэмплы : Да
Интерфейс : Встроенный Win32-интерфейс для Win NT/2000
Выходной формат : Пользовательский кодировщик
Выбранный битрейт : 1024 kBit/s
Качество : Высокий
Добавление ID3-тега : Да
Утилита сжатия : C:\Program Files (x86)\Exact Audio Copy\Flac\flac.exe
Дополнительные параметры : -8 -V -T "ALBUMARTIST=%albumartist%" -T "ALBUM=%albumtitle%" -T "DATE=%year%" -T "TRACKTOTAL=%numtracks%" -T "GENRE=%genre%" -T "COMMENT=%comment%" -T "PERFORMER=%albuminterpret%" -T "COMPOSER=%composer%" %source% -o %dest%
TOC извлечённого CD
Трек | Старт | Длительность | Начальный сектор | Конечный сектор
---------------------------------------------------------------------
1 | 0:00.30 | 6:10.21 | 30 | 27800
2 | 6:10.51 | 5:36.09 | 27801 | 53009
3 | 11:46.60 | 5:19.58 | 53010 | 76992
4 | 17:06.43 | 2:33.37 | 76993 | 88504
5 | 19:40.05 | 8:08.53 | 88505 | 125157
6 | 27:48.58 | 2:45.69 | 125158 | 137601
7 | 30:34.52 | 6:53.41 | 137602 | 168617
8 | 37:28.18 | 5:44.08 | 168618 | 194425
9 | 43:12.26 | 3:29.18 | 194426 | 210118
10 | 46:41.44 | 3:41.04 | 210119 | 226697
11 | 50:22.48 | 3:58.06 | 226698 | 244553
12 | 54:20.54 | 4:08.66 | 244554 | 263219
13 | 58:29.45 | 3:19.39 | 263220 | 278183
14 | 61:49.09 | 3:07.05 | 278184 | 292213
Характеристики диапазона извлечения и сообщения об ошибках
Выбранный диапазон
Имя файла O:\!Rips\Kennst du das Land - Lieder und Klavierstucke von Franz Schubert.wav
Пиковый уровень 100.0 %
Скорость извлечения 2.2 X
Качество диапазона 100.0 %
CRC теста 586B102B
CRC копии 586B102B
Копирование... OK
Ошибок не произошло
AccurateRip: сводка
Трек 1 : извлечено точно (доверие 2) [935508FD] (AR v2)
Трек 2 : извлечено точно (доверие 2) [53CA684F] (AR v2)
Трек 3 : извлечено точно (доверие 2) [9990A12F] (AR v2)
Трек 4 : извлечено точно (доверие 2) [F29F842E] (AR v2)
Трек 5 : извлечено точно (доверие 2) [9FD118E1] (AR v2)
Трек 6 : извлечено точно (доверие 2) [395D3F08] (AR v2)
Трек 7 : извлечено точно (доверие 2) [9C58B24C] (AR v2)
Трек 8 : извлечено точно (доверие 2) [4CE8D958] (AR v2)
Трек 9 : извлечено точно (доверие 2) [F00BA37A] (AR v2)
Трек 10 : извлечено точно (доверие 2) [1AB27767] (AR v2)
Трек 11 : извлечено точно (доверие 2) [FE6A243A] (AR v2)
Трек 12 : извлечено точно (доверие 2) [175AE755] (AR v2)
Трек 13 : извлечено точно (доверие 2) [ACAE7B9C] (AR v2)
Трек 14 : извлечено точно (доверие 2) [C38026D1] (AR v2)
Все треки извлечены точно
Конец отчёта
==== Контрольная сумма отчёта 973E8A9234C3108E1502547B975E5CC258AB7EA3A8175EA312A6845CDB4E5BA8 ====

Содержание индексной карты (.CUE)

REM GENRE Classical
REM DATE 2003
REM DISCID AA0F380E
REM COMMENT "ExactAudioCopy v1.0b3"
PERFORMER "Johannette Zomer, Arthur Schoonderwoerd"
TITLE "Kennst du das Land? - Lieder und Klavierstucke von Franz Schubert"
FILE "Kennst du das Land - Lieder und Klavierstucke von Franz Schubert.flac" WAVE
TRACK 01 AUDIO
TITLE "Fantaisie en do mineur, D 2 E (1811)"
PERFORMER "Johannette Zomer, Arthur Schoonderwoerd"
INDEX 00 00:00:00
INDEX 01 00:00:30
TRACK 02 AUDIO
TITLE "Suleika, op.14 (1819)"
PERFORMER "Johannette Zomer, Arthur Schoonderwoerd"
INDEX 00 06:08:69
INDEX 01 06:10:51
TRACK 03 AUDIO
TITLE "Suleikas zweiter Gesang, op.31 (1822)"
PERFORMER "Johannette Zomer, Arthur Schoonderwoerd"
INDEX 00 11:44:63
INDEX 01 11:46:60
TRACK 04 AUDIO
TITLE "Menuet en La Majeur, D 334 (1815)"
PERFORMER "Johannette Zomer, Arthur Schoonderwoerd"
INDEX 00 17:02:67
INDEX 01 17:06:43
TRACK 05 AUDIO
TITLE "Ellens erster Gesang, op.52 Nr.1 (1825)"
PERFORMER "Johannette Zomer, Arthur Schoonderwoerd"
INDEX 00 19:37:44
INDEX 01 19:40:05
TRACK 06 AUDIO
TITLE "Ellens zweiter Gesang, op.52 Nr.2 (1825)"
PERFORMER "Johannette Zomer, Arthur Schoonderwoerd"
INDEX 00 27:46:61
INDEX 01 27:48:58
TRACK 07 AUDIO
TITLE "Ellens dritter Gesang (Ave Maria), op.52 Nr.6 (1825)"
PERFORMER "Johannette Zomer, Arthur Schoonderwoerd"
INDEX 00 30:30:67
INDEX 01 30:34:52
TRACK 08 AUDIO
TITLE "Adagio en Sol Majeur, D 178 (1815)"
PERFORMER "Johannette Zomer, Arthur Schoonderwoerd"
INDEX 00 37:23:30
INDEX 01 37:28:18
TRACK 09 AUDIO
TITLE "Gretchen am Spinnrade, op.2 (1814)"
PERFORMER "Johannette Zomer, Arthur Schoonderwoerd"
INDEX 00 43:10:68
INDEX 01 43:12:26
TRACK 10 AUDIO
TITLE "Menuet en la mineur, D 277 A (1815)"
PERFORMER "Johannette Zomer, Arthur Schoonderwoerd"
INDEX 00 46:37:65
INDEX 01 46:41:44
TRACK 11 AUDIO
TITLE "Mignon's Gesang (1815)"
PERFORMER "Johannette Zomer, Arthur Schoonderwoerd"
INDEX 00 50:19:42
INDEX 01 50:22:48
TRACK 12 AUDIO
TITLE "Lied der Mignon, op.62 Nr.2 (1826)"
PERFORMER "Johannette Zomer, Arthur Schoonderwoerd"
INDEX 01 54:20:54
TRACK 13 AUDIO
TITLE "Lied der Mignon, op.62 Nr.4 (1826)"
PERFORMER "Johannette Zomer, Arthur Schoonderwoerd"
INDEX 00 58:28:15
INDEX 01 58:29:45
TRACK 14 AUDIO
TITLE "Lied der Mignon, op.62 Nr.3 (1826)"
PERFORMER "Johannette Zomer, Arthur Schoonderwoerd"
INDEX 00 61:45:18
INDEX 01 61:49:09



Показать сообщения:    

Текущее время: 03-Дек 16:45

Часовой пояс: UTC + 3


Вы не можете начинать темы
Вы не можете отвечать на сообщения
Вы не можете редактировать свои сообщения
Вы не можете удалять свои сообщения
Вы не можете голосовать в опросах
Вы не можете прикреплять файлы к сообщениям
Вы не можете скачивать файлы