(Classical, Baroque, Authentic, Wind) Georg Philipp Telemann - Wind Concertos. Vol. 2 [La Stagione Frankfurt, Camerata Koln, Michael Schneider], CPO 2008, FLAC (image+.cue), lossless


Статистика раздачи [Обновить пиров]
Размер:  265 MB   |    Зарегистрирован:  10 месяцев 2 дня   |    Скачан:  0 раз

Полного источника не было: 1 месяц 15 дней

 
   
 
 
 

[Цитировать]

Georg Philipp TelemannConcerti per strumenti a fiato. Tomo Secondo.
TWV 51:C1, 51:f1, 51:G1, 52:D1, 53:d1

Концерты для духовых. Том Второй.-- Жанр: Classical, Baroque, Authentic, Wind
Страна-производитель диска: Germany
Год издания: 2008
Лейбл: CPO
Номер в каталоге: CPO 777 267-2
Аудиокодек: FLAC
Тип рипа: image+.cue
Битрейт аудио: lossless
Продолжительность: 00:54:38
Наличие сканов: имеются
Источник: релизёр
LOSSY-La Stagione Frankfurt e Camerata Köln
Michael Schneider direttore e flautista
Ulrich Hübner e Jörg Schulteß cornisti
Karl Kaiser flautista
Luise Baumgartl, Martin Stadler e Hans Peter Westermann oboisti
Marita Schaar fagottista

Треклист

01. TWV 51:C1 - Concerto in Do maggiore per flauto dolce, archi e basso continuo - I. Allegretto [00:03:23]
02.II. Allegro [00:03:28]
03.III. Andante [00:04:14]
04.IV. Tempo di Menuet [00:05:20]
05.TWV 53:d1 - Concerto in Re minore per due oboi, fagotto, archi e basso continuo - I. Grave [00:03:11]
06.II. Allegro [00:01:59]
07.III. Affettuoso [00:02:13]
08.IV. Vivace [00:02:27]
09.TWV 51:G1 - Concerto in Sol maggiore per flauto traversiere, due violini e basso continuo - I. Andante [00:03:14]
10.II. Allegro [00:03:25]
11.III. Adagio [00:02:14]
12.IV. Vivace [00:03:40]
13.TWV 52:D1 - Concerto in Re maggiore per due corni, archi e basso continuo - I. Largo ed Allegro [00:02:00]
14.II. Vivace [00:02:43]
15.III. Affettuoso [00:01:13]
16.IV. Allegro [00:01:33]
17.TWV 51:f1 - Concerto in Fa minore per oboe, archi e basso continuo - I. Allegro [00:03:24]
18.II. Largo e piano [00:02:45]
19.III. Vivace [00:02:04]

LOG EAC

Exact Audio Copy V1.0 beta 3 from 29. August 2011
EAC extraction logfile from 5. March 2013, 20:25
La Stagione Frankfurt e Camerata Koln / Telemann. Concerti per strumenti a fiato. Tomo Secondo [CPO 2008].
Used drive : TSSTcorpCDDVDW SH-222BB Adapter: 2 ID: 1
Read mode : Secure
Utilize accurate stream : Yes
Defeat audio cache : Yes
Make use of C2 pointers : No
Read offset correction : 6
Overread into Lead-In and Lead-Out : No
Fill up missing offset samples with silence : Yes
Delete leading and trailing silent blocks : No
Null samples used in CRC calculations : Yes
Used interface : Native Win32 interface for Win NT & 2000
Used output format : User Defined Encoder
Selected bitrate : 1024 kBit/s
Quality : High
Add ID3 tag : No
Command line compressor : C:\Program Files\Exact Audio Copy\Flac\flac.exe
Additional command line options : -8 -V -T "TITLE=%title%" -T "ARTIST=%artist%" -T "ALBUMARTIST=%albumartist%" -T "ALBUM=%albumtitle%" -T "DATE=%year%" -T "TRACKNUMBER=%tracknr%" -T "TRACKTOTAL=%numtracks%" -T "GENRE=%genre%" -T "COMMENT=%comment%" -T "PERFORMER=%albuminterpret%" -T "COMPOSER=%composer%" %source% -o %dest%
TOC of the extracted CD
Track | Start | Length | Start sector | End sector
---------------------------------------------------------
1 | 0:00.00 | 3:23.47 | 0 | 15271
2 | 3:23.47 | 3:28.17 | 15272 | 30888
3 | 6:51.64 | 4:14.27 | 30889 | 49965
4 | 11:06.16 | 5:20.35 | 49966 | 74000
5 | 16:26.51 | 3:11.04 | 74001 | 88329
6 | 19:37.55 | 1:59.16 | 88330 | 97270
7 | 21:36.71 | 2:13.22 | 97271 | 107267
8 | 23:50.18 | 2:27.21 | 107268 | 118313
9 | 26:17.39 | 3:14.03 | 118314 | 132866
10 | 29:31.42 | 3:25.31 | 132867 | 148272
11 | 32:56.73 | 2:13.72 | 148273 | 158319
12 | 35:10.70 | 3:40.43 | 158320 | 174862
13 | 38:51.38 | 2:00.10 | 174863 | 183872
14 | 40:51.48 | 2:43.36 | 183873 | 196133
15 | 43:35.09 | 1:13.53 | 196134 | 201661
16 | 44:48.62 | 1:33.72 | 201662 | 208708
17 | 46:22.59 | 3:24.17 | 208709 | 224025
18 | 49:47.01 | 2:45.64 | 224026 | 236464
19 | 52:32.65 | 2:04.41 | 236465 | 245805
Range status and errors
Selected range
Filename D:\ Telemann / Telemann. Concerti per strumenti a fiato. Tomo Secondo [CPO 2008] \ Telemann. Concerti per strumenti a fiato. Tomo Secondo [CPO 2008].wav
Peak level 92.9 %
Extraction speed 7.1 X
Range quality 100.0 %
Test CRC DCADC65F
Copy CRC DCADC65F
Copy OK
No errors occurred
AccurateRip summary
Track 1 accurately ripped (confidence 2) [BEFFF502] (AR v2)
Track 2 accurately ripped (confidence 2) [2AD5CC78] (AR v2)
Track 3 accurately ripped (confidence 2) [89D64350] (AR v2)
Track 4 accurately ripped (confidence 2) [683A4579] (AR v2)
Track 5 accurately ripped (confidence 2) [3A732D7A] (AR v2)
Track 6 accurately ripped (confidence 2) [1B91FA08] (AR v2)
Track 7 accurately ripped (confidence 2) [8C71E908] (AR v2)
Track 8 accurately ripped (confidence 2) [877349DE] (AR v2)
Track 9 accurately ripped (confidence 2) [30D1F1AC] (AR v2)
Track 10 accurately ripped (confidence 2) [094107E7] (AR v2)
Track 11 accurately ripped (confidence 2) [1CBBF174] (AR v2)
Track 12 accurately ripped (confidence 2) [9CB5EF57] (AR v2)
Track 13 accurately ripped (confidence 2) [E1476685] (AR v2)
Track 14 accurately ripped (confidence 2) [465E33D8] (AR v2)
Track 15 accurately ripped (confidence 2) [5C20E3A6] (AR v2)
Track 16 accurately ripped (confidence 2) [762EEC03] (AR v2)
Track 17 accurately ripped (confidence 2) [762DBF48] (AR v2)
Track 18 accurately ripped (confidence 2) [DF44755B] (AR v2)
Track 19 accurately ripped (confidence 2) [FFE96832] (AR v2)
All tracks accurately ripped
End of status report

.CUE

REM GENRE Musica barocca
REM DISCID 2E0CCD13
REM COMMENT "TitoManlio"
TITLE "Telemann. Concerti per strumenti a fiato. Tomo Secondo [CPO 2008]."
FILE "Telemann. Concerti per strumenti a fiato. Tomo Secondo [CPO 2008].flac" WAVE
TRACK 01 AUDIO
TITLE "Concerto TWV 51:C1 in Do maggiore per flauto dolce, archi e basso continuo - I. Allegretto"
PERFORMER "La Stagione Frankfurt, Michael Schneider [direttore e flautista]"
FLAGS DCP
INDEX 01 00:00:00
TRACK 02 AUDIO
TITLE "Concerto TWV 51:C1 in Do maggiore per flauto dolce, archi e basso continuo - II. Allegro"
PERFORMER "La Stagione Frankfurt, Michael Schneider [direttore e flautista]"
FLAGS DCP
INDEX 01 03:23:47
TRACK 03 AUDIO
TITLE "Concerto TWV 51:C1 in Do maggiore per flauto dolce, archi e basso continuo - III. Andante"
PERFORMER "La Stagione Frankfurt, Michael Schneider [direttore e flautista]"
FLAGS DCP
INDEX 01 06:51:64
TRACK 04 AUDIO
TITLE "Concerto TWV 51:C1 in Do maggiore per flauto dolce, archi e basso continuo - IV. Tempo di Menuet"
PERFORMER "La Stagione Frankfurt, Michael Schneider [direttore e flautista]"
FLAGS DCP
INDEX 01 11:06:16
TRACK 05 AUDIO
TITLE "Concerto TWV 53:d1 in Re minore per due oboi, fagotto, archi e basso continuo - I. Grave"
PERFORMER "La Stagione Frankfurt, Michael Schneider [direttore], Luise Baumgartl e Martin Stadler [oboisti], Marita Schaar [fagottista]"
FLAGS DCP
INDEX 00 16:20:63
INDEX 01 16:26:51
TRACK 06 AUDIO
TITLE "Concerto TWV 53:d1 in Re minore per due oboi, fagotto, archi e basso continuo - II. Allegro"
PERFORMER "La Stagione Frankfurt, Michael Schneider [direttore], Luise Baumgartl e Martin Stadler [oboisti], Marita Schaar [fagottista]"
FLAGS DCP
INDEX 01 19:37:55
TRACK 07 AUDIO
TITLE "Concerto TWV 53:d1 in Re minore per due oboi, fagotto, archi e basso continuo - III. Affettuoso"
PERFORMER "La Stagione Frankfurt, Michael Schneider [direttore], Luise Baumgartl e Martin Stadler [oboisti], Marita Schaar [fagottista]"
FLAGS DCP
INDEX 01 21:36:71
TRACK 08 AUDIO
TITLE "Concerto TWV 53:d1 in Re minore per due oboi, fagotto, archi e basso continuo - IV. Vivace"
PERFORMER "La Stagione Frankfurt, Michael Schneider [direttore], Luise Baumgartl e Martin Stadler [oboisti], Marita Schaar [fagottista]"
FLAGS DCP
INDEX 01 23:50:18
TRACK 09 AUDIO
TITLE "Concerto TWV 51:G1 in Sol maggiore per flauto traversiere, due violini e basso continuo - I. Andante"
PERFORMER "Camerata Köln, Michael Schneider [direttore], Karl Kaiser [flautista]"
FLAGS DCP
INDEX 00 26:12:02
INDEX 01 26:17:39
TRACK 10 AUDIO
TITLE "Concerto TWV 51:G1 in Sol maggiore per flauto traversiere, due violini e basso continuo - II. Allegro"
PERFORMER "Camerata Köln, Michael Schneider [direttore], Karl Kaiser [flautista]"
FLAGS DCP
INDEX 01 29:31:42
TRACK 11 AUDIO
TITLE "Concerto TWV 51:G1 in Sol maggiore per flauto traversiere, due violini e basso continuo - III. Adagio"
PERFORMER "Camerata Köln, Michael Schneider [direttore], Karl Kaiser [flautista]"
FLAGS DCP
INDEX 01 32:56:73
TRACK 12 AUDIO
TITLE "Concerto TWV 51:G1 in Sol maggiore per flauto traversiere, due violini e basso continuo - IV. Vivace"
PERFORMER "Camerata Köln, Michael Schneider [direttore], Karl Kaiser [flautista]"
FLAGS DCP
INDEX 01 35:10:70
TRACK 13 AUDIO
TITLE "Concerto TWV 52:D1 in Re maggiore per due corni, archi e basso continuo - I. Largo ed Allegro"
PERFORMER "La Stagione Frankfurt, Michael Schneider [direttore], Ulrich Hübner e Jörg Schulteß [cornisti]"
FLAGS DCP
INDEX 00 38:45:48
INDEX 01 38:51:38
TRACK 14 AUDIO
TITLE "Concerto TWV 52:D1 in Re maggiore per due corni, archi e basso continuo - II. Vivace"
PERFORMER "La Stagione Frankfurt, Michael Schneider [direttore], Ulrich Hübner e Jörg Schulteß [cornisti]"
FLAGS DCP
INDEX 01 40:51:48
TRACK 15 AUDIO
TITLE "Concerto TWV 52:D1 in Re maggiore per due corni, archi e basso continuo - III. Affettuoso"
PERFORMER "La Stagione Frankfurt, Michael Schneider [direttore], Ulrich Hübner e Jörg Schulteß [cornisti]"
FLAGS DCP
INDEX 01 43:35:09
TRACK 16 AUDIO
TITLE "Concerto TWV 52:D1 in Re maggiore per due corni, archi e basso continuo - IV. Allegro"
PERFORMER "La Stagione Frankfurt, Michael Schneider [direttore], Ulrich Hübner e Jörg Schulteß [cornisti]"
FLAGS DCP
INDEX 01 44:48:62
TRACK 17 AUDIO
TITLE "Concerto TWV 51:f1 in Fa minore per oboe, archi e basso continuo - I. Allegro"
PERFORMER "Camerata Köln, Michael Schneider [direttore], Hans Peter Westermann [oboista]"
FLAGS DCP
INDEX 00 46:16:74
INDEX 01 46:22:59
TRACK 18 AUDIO
TITLE "Concerto TWV 51:f1 in Fa minore per oboe, archi e basso continuo - II. Largo e piano"
PERFORMER "Camerata Köln, Michael Schneider [direttore], Hans Peter Westermann [oboista]"
FLAGS DCP
INDEX 01 49:47:01
TRACK 19 AUDIO
TITLE "Concerto TWV 51:f1 in Fa minore per oboe, archi e basso continuo - III. Vivace"
PERFORMER "Camerata Köln, Michael Schneider [direttore], Hans Peter Westermann [oboista]"
FLAGS DCP
INDEX 01 52:32:65
--Смотрите также: -Просьба не уходить с раздачи!!!
[teatrix.ru].t17765.torrent 
Торрент: Зарегистрирован [ 2016-03-17 00:50 ] · 22B5B7430FD7CF3B9E2127F1701FBEE05D1259FE

Скачать .torrent

Скачать

12 KB

Статус: проверено
Скачан: 0 раз
Размер: 265 MB
terms.php



Быстрый ответ

Имя:

      
Для отправки сообщений необходимо включить JavaScript
Показать сообщения:    

Текущее время: 19-Янв 16:03

Часовой пояс: UTC + 3


Вы можете начинать темы
Вы можете отвечать на сообщения
Вы не можете редактировать свои сообщения
Вы не можете удалять свои сообщения
Вы не можете голосовать в опросах
Вы не можете прикреплять файлы к сообщениям
Вы можете скачивать файлы