Как снималась «Чуча» (Гарри Бардин) [1997, Документальный фильм, DVDRip]


Статистика раздачи [Обновить пиров]
Размер:  355 MB   |    Зарегистрирован:  8 месяцев 16 дней   |    Скачан:  0 раз

Полного источника не было: Никогда

 
   
 
 
 

[Цитировать]

Как снималась «Чуча»Тип раздаваемого материала: дополнительные материалы
Год выпуска : 1997
Страна: Россия
Жанр: Документальный фильм
Продолжительность: 00:28:21
Кинокомпания: Киностудия «Стайер»
Перевод: Не требуется
Русские субтитры: нет
Автор и режиссёр: Гарри БардинОписание:На примере мультфильма «Чуча» режиссёр Гарри Бардин рассказывает о «кухне» создания мультипликационного фильма. Для любой зрительской аудитории.
Качество: DVDRip
Формат видео: AVI
Видео кодек: XviD
Аудио кодек: AC3
Видео: 720x544 (1.32:1), 25 fps, XviD build 64 ~1548 kbps avg, 0.16 bit/pixel
Аудио: 48 kHz, AC3 Dolby Digital, 2/0 (L,R) ch, ~192 kbps

Подробные технические данные

Общее
Полное имя : F:\Kak_snimalas'_Chucha (1997).avi
Формат : AVI
Формат/Информация : Audio Video Interleave
Размер файла : 355 Мбайт
Продолжительность : 28 м.
Общий поток : 1750 Кбит/сек
Программа кодирования : VirtualDubMod 1.5.10.2 (build 2540/release)
Библиотека кодирования : VirtualDubMod build 2540/release
Видео
Идентификатор : 0
Формат : MPEG-4 Visual
Профиль формата : Advanced Simple@L5
Параметр BVOP формата : 2
Параметр QPel формата : Нет
Параметр GMC формата : Без точки перехода
Параметр матрицы формата : Выборочная
Идентификатор кодека : XVID
Идентификатор кодека/Подсказка : XviD
Продолжительность : 28 м.
Битрейт : 1548 Кбит/сек
Ширина : 720 пикселей
Высота : 544 пикселя
Соотношение сторон : 4:3
Частота кадров : 25,000 кадров/сек
Цветовое пространство : YUV
Субдискретизация насыщенности : 4:2:0
Битовая глубина : 8 бит
Тип развёртки : Прогрессивная
Метод сжатия : С потерями
Бит/(Пиксели*Кадры) : 0.158
Размер потока : 314 Мбайт (88%)
Библиотека кодирования : XviD 64
Аудио
Идентификатор : 1
Формат : AC-3
Формат/Информация : Audio Coding 3
Расширение режима : CM (complete main)
Идентификатор кодека : 2000
Продолжительность : 28 м.
Вид битрейта : Постоянный
Битрейт : 192 Кбит/сек
Каналы : 2 канала
Расположение каналов : Front: L R
Частота : 48,0 КГц
Битовая глубина : 16 бит
Метод сжатия : С потерями
Размер потока : 38,9 Мбайт (11%)
Выравнивание : Разделение по промежуткам
Продолжительность промежутка : 40 мс. (1,00 видеокадр)
Время предзагрузки промежутка : 500 мс.
Subtitles: Not Present

Скриншоты


-
Чуча ─ 1, 2, 3(реж. Гарри Бардин)(1997, 2001, 2004 г.г.)
-
Все раздачи
[teatrix.ru].t17768.torrent 
Торрент: Зарегистрирован [ 2016-03-17 00:50 ] · AEFB631883C25BBB6E61B6708D25F21E95788065

Скачать .torrent

Скачать

14 KB

Статус: проверено
Скачан: 0 раз
Размер: 355 MB
terms.php



Показать сообщения:    

Текущее время: 02-Дек 23:12

Часовой пояс: UTC + 3


Вы не можете начинать темы
Вы не можете отвечать на сообщения
Вы не можете редактировать свои сообщения
Вы не можете удалять свои сообщения
Вы не можете голосовать в опросах
Вы не можете прикреплять файлы к сообщениям
Вы можете скачивать файлы