(Classical, medieval) Neidhart - A Minnesinger and his 'Vale of Tears': Songs and Interludes - Ensemble Leones - 2012, FLAC (image+.cue) lossless


 

[Цитировать]

Neidhart - A Minnesinger and his 'Vale of Tears': Songs and Interludes - Ensemble Leones
Жанр: Classical, medieval
Год издания диска: 2012
Издатель (лейбл): Naxos
Номер по каталогу: 8.572449
Дата записи: 2010
Аудиокодек: FLAC
Тип рипа: image+.cue
Битрейт аудио: lossless
Продолжительность: 64:42
Источник: собственный рип
Наличие сканов в содержимом раздачи: да
Треклист:
Neidhart (c.1185-c.1240)
[1] cantilena ‘Der han’ (‘The cock’) (music: Neidhart (c.1185-c.1240), arr. B. Romain) 2:36
[2] Mir ist ummaten leyde (I am grieved beyond all measure) (music and text: Neidhart, arr. M. Lewon) 5:27
[3] Summer unde winder (Summer and winter) (music and text: Neidhart, arr. M. Lewon) 7:44
[4] clausula (arr. B. Romain) – material taken from several Neidhart songs and 13th century English monodies 3:53
[5] Sinc eyn gulden hoen (Sing, you golden hen) (music and text: Neidhart, arr. M. Lewon) / stantipes ‘Der munich’ (‘The monk’) (music: Neidhart, arr. B. Romain) 7:40
[6] Willekome eyn sommerweter suze (Welcome the sweet summer weather) (music and text: Neidhart, arr. M. Lewon) 5:54
[7] Guoten wib wol üch der eren (Gracious ladies, you deserve honour)
(text: Der tugendhafte Schreiber (fl.1208-1228), contrafacture and arrangement by M. Lewon) – melody adapted from the Jenaer Liederhandschrift (14th century) 5:49
[8] muteta ‘Non veul mari’ (‘I do not want a husband’) (arr. B. Romain) – material taken from a 13th-century motet 1:46
[9] Ich claghe de blomen (I mourn for the flowers) (music and text: Neidhart, arr. M. Lewon) 9:30
[10] stantipes ‘Der hedamerschol’ (‘The hedamerschol’) (arr. B. Romain) – material taken from a 13th-century motet tenor 2:29
[11] Allez daz den sumer (Everything that all summer long) (music and text:Neidhart, arr. M. Lewon) – melody taken from the Riedsche Handschrift 7:04
[12] Vil wol gelopter got (God, so highly extolled) (music and text: Walther von der Vogelweide (c.1170-c.1230), arranged and completed by M. Lewon) 3:09
[13] Bonus track: Je muir, je muir (I die, I die) (music and text: Adam de la Halle (c.1237-1288), arr. M. Lewon) 1:40
Исполнители:
Ensemble Leones
Marc Lewon director, voice, lute, gittern, vielle
Els Janssens-Vanmunster voice
Baptiste Romain vielle, bagpipes, voice

Лог создания рипа

Exact Audio Copy V1.0 beta 3 from 29. August 2011
EAC extraction logfile from 9. October 2013, 13:17
Ensemble Leones / Neidhart - A Minnesinger and His 'Vale of Tears'
Used drive : HL-DT-STDVDRRW GWA-4164B Adapter: 5 ID: 0
Read mode : Secure
Utilize accurate stream : Yes
Defeat audio cache : Yes
Make use of C2 pointers : No
Read offset correction : 102
Overread into Lead-In and Lead-Out : No
Fill up missing offset samples with silence : Yes
Delete leading and trailing silent blocks : No
Null samples used in CRC calculations : Yes
Used interface : Native Win32 interface for Win NT & 2000
Used output format : User Defined Encoder
Selected bitrate : 896 kBit/s
Quality : High
Add ID3 tag : No
Command line compressor : C:\Program Files\Exact Audio Copy\FLAC\FLAC.EXE
Additional command line options : -V -8 %source%
TOC of the extracted CD
Track | Start | Length | Start sector | End sector
---------------------------------------------------------
1 | 0:00.00 | 2:34.05 | 0 | 11554
2 | 2:34.05 | 5:27.10 | 11555 | 36089
3 | 8:01.15 | 7:45.10 | 36090 | 70974
4 | 15:46.25 | 3:54.02 | 70975 | 88526
5 | 19:40.27 | 7:38.74 | 88527 | 122950
6 | 27:19.26 | 5:54.13 | 122951 | 149513
7 | 33:13.39 | 5:48.00 | 149514 | 175613
8 | 39:01.39 | 1:47.48 | 175614 | 183686
9 | 40:49.12 | 9:28.00 | 183687 | 226286
10 | 50:17.12 | 2:30.56 | 226287 | 237592
11 | 52:47.68 | 7:03.01 | 237593 | 269318
12 | 59:50.69 | 3:12.55 | 269319 | 283773
13 | 63:03.49 | 1:36.26 | 283774 | 290999
Range status and errors
Selected range
Filename D:\temp\Music\Neidhart (Ensemble Leones)\Neidhart - A Minnesinger and His 'Vale of Tears'.wav
Peak level 74.3 %
Extraction speed 2.9 X
Range quality 100.0 %
Test CRC 19D7DE1C
Copy CRC 19D7DE1C
Copy OK
No errors occurred
AccurateRip summary
Track 1 accurately ripped (confidence 1) [2CD72F22] (AR v2)
Track 2 accurately ripped (confidence 1) [F73597B1] (AR v2)
Track 3 accurately ripped (confidence 1) [01E1F15D] (AR v2)
Track 4 accurately ripped (confidence 1) [7B6FD8A8] (AR v2)
Track 5 accurately ripped (confidence 1) [3E9D229A] (AR v2)
Track 6 accurately ripped (confidence 1) [8ED7EF04] (AR v2)
Track 7 accurately ripped (confidence 1) [BB179F34] (AR v2)
Track 8 accurately ripped (confidence 1) [55FDC2A4] (AR v2)
Track 9 accurately ripped (confidence 1) [A741F3A6] (AR v2)
Track 10 accurately ripped (confidence 1) [7E3CA16E] (AR v2)
Track 11 accurately ripped (confidence 1) [10519BEB] (AR v2)
Track 12 accurately ripped (confidence 1) [7E342F91] (AR v2)
Track 13 accurately ripped (confidence 1) [FA956A03] (AR v2)
All tracks accurately ripped
End of status report
==== Log checksum 770A14F6645A7361FBC7483D146DC8A3587FF0CBB515D99A9D8D91EE91C17185 ====



Показать сообщения:    

Текущее время: 06-Дек 13:15

Часовой пояс: UTC + 3


Вы не можете начинать темы
Вы не можете отвечать на сообщения
Вы не можете редактировать свои сообщения
Вы не можете удалять свои сообщения
Вы не можете голосовать в опросах
Вы не можете прикреплять файлы к сообщениям
Вы не можете скачивать файлы