(Baroque/Vocal) Helen Kwon - Mozart Concert Arias (Hamburger Camerata, Max Pommer 1999) - 2000, APE (image+.cue) lossless


 

[Цитировать]

Helen Kwon - Mozart Concert Arias (Hamburger Camerata, Max Pommer 1999)
Жанр: Baroque/Vocal
Страна-производитель диска: Germany
Год издания диска: 2000
Издатель (лейбл): Arte Nova Classics
Номер по каталогу: 74321711782
Дата записи: 1999
Аудиокодек: APE
Тип рипа: image+.cue
Битрейт аудио: lossless
Продолжительность: 64'16
Источник: собственный рип
Наличие сканов в содержимом раздачи: да
Треклист:
01. A Berenice...Sol nascente, recitative and aria for soprano & orchestra, K. 70 (K. 61c)
02. Per pietà, bell'idol mio, aria for soprano & orchestra, K. 78 (K. 73b)
03. O temerario Arbace!...Per quel paterno, recitative and aria for soprano & orchestra, K. 79 (K. 73d)
04. Nehmt meinen Dank, ihr holden Gönner, aria for soprano & orchestra. K. 383
05. Mia speranza adorata...Ah, non sai qual pena, recitative and aria for soprano & orchestra, K. 416
06. Vorrei spiegarvi, o Dio, aria for soprano & orchestra, K. 418
07. Bella mia fiamma, addio!...Resta, o cara!, recitative and aria for soprano & orchestra, K. 528
08. Schon lacht der holde Frühling, aria for soprano & orchestra, K. 580
09. Chi sà, chi sà, qual sia, aria for soprano & orchestra, K. 582
Исполнители:
Helen Kwon and The Hamburger Camerata conducted by Max Pommer

Лог создания рипа

Exact Audio Copy V1.0 beta 3 from 29. August 2011
EAC extraction logfile from 20. October 2013, 13:44
Hellen Kwon / Mozart Concert Arias
Used drive : TSSTcorpCDDVDW SH-216AB Adapter: 0 ID: 1
Read mode : Secure
Utilize accurate stream : Yes
Defeat audio cache : Yes
Make use of C2 pointers : No
Read offset correction : 6
Overread into Lead-In and Lead-Out : No
Fill up missing offset samples with silence : Yes
Delete leading and trailing silent blocks : No
Null samples used in CRC calculations : Yes
Used interface : Native Win32 interface for Win NT & 2000
Used output format : Monkey's Audio Lossless Encoder
Selected bitrate : High Lossless Compression
Quality : High
Add ID3 tag : Yes
Command line compressor : K:\Program Files (x86)\Exact Audio Copy\Monkeys Audio\Monkey's Audio\MAC.exe
Additional command line options : -6 -V -T "ARTIST=%artist%" -T "TITLE=%title%" -T "ALBUM=%albumtitle%" -T "DATE=%year%" -T "TRACKNUMBER=%tracknr%" -T "GENRE=%genre%" -T "COMMENT=%comment%" -T "BAND=%albuminterpret%" -T "ALBUMARTIST=%albuminterpret%" -T "COMPOSER=%composer%" %haslyrics%--tag-from-file=LYRICS="%lyricsfile%"%haslyrics% -T "DISCNUMBER=%cdnumber%" -T "TOTALDISCS=%totalcds%" -T "TOTALTRACKS=%numtracks%" %hascover%--picture="%coverfile%"%hascover% %source% -o %dest%
TOC of the extracted CD
Track | Start | Length | Start sector | End sector
---------------------------------------------------------
1 | 0:00.00 | 11:47.37 | 0 | 53061
2 | 11:47.37 | 4:47.18 | 53062 | 74604
3 | 16:34.55 | 5:37.47 | 74605 | 99926
4 | 22:12.27 | 3:38.50 | 99927 | 116326
5 | 25:51.02 | 9:18.40 | 116327 | 158216
6 | 35:09.42 | 7:11.45 | 158217 | 190586
7 | 42:21.12 | 9:51.48 | 190587 | 234959
8 | 52:12.60 | 8:48.12 | 234960 | 274571
9 | 61:00.72 | 3:19.63 | 274572 | 289559
Range status and errors
Selected range
Filename I:\Foobar-EAC\Hellen Kwon - Mozart Concert Arias.wav
Peak level 98.8 %
Extraction speed 3.3 X
Range quality 99.9 %
Test CRC E69ACC95
Copy CRC E69ACC95
Copy OK
No errors occurred
AccurateRip summary
Track 1 accurately ripped (confidence 3) [5BA6E8B6] (AR v1)
Track 2 accurately ripped (confidence 3) [A6FC4AE2] (AR v1)
Track 3 accurately ripped (confidence 3) [08849361] (AR v1)
Track 4 accurately ripped (confidence 3) [D8CDA363] (AR v1)
Track 5 accurately ripped (confidence 3) [DC1B55B5] (AR v1)
Track 6 accurately ripped (confidence 3) [60EDA197] (AR v1)
Track 7 accurately ripped (confidence 3) [0D5B8F63] (AR v1)
Track 8 accurately ripped (confidence 3) [01BFF6C1] (AR v1)
Track 9 accurately ripped (confidence 3) [088572BA] (AR v1)
All tracks accurately ripped
End of status report
---- CUETools DB Plugin V2.1.3
[CTDB TOCID: NtQ4uKkrAE6_a8FCxcHqenih5oA-] disk not present in database, Submit result: database access error: ExpectationFailed
==== Log checksum 2595729F4EDABAC740B6DF6B201D7647643EB7BB3B12106C46304B1CBC62DBA1 ====

Содержание индексной карты (.CUE)

REM GENRE opera
REM DATE 2000
REM DISCID 720F1409
REM COMMENT "ExactAudioCopy v1.0b3"
PERFORMER "Hellen Kwon"
TITLE "Mozart Concert Arias"
FILE "Hellen Kwon - Mozart Concert Arias.ape" WAVE
TRACK 01 AUDIO
TITLE "A Berenice - Sol nascente, K.70 (61c)"
PERFORMER "Hellen Kwon"
INDEX 01 00:00:00
TRACK 02 AUDIO
TITLE "Per pietà, bell' idol mio K. 78 (73b)"
PERFORMER "Hellen Kwon"
INDEX 00 11:44:02
INDEX 01 11:47:37
TRACK 03 AUDIO
TITLE "Oh, temerario Arbace! - Per quel paterno amplesso K. 79 (73d)"
PERFORMER "Hellen Kwon"
INDEX 00 16:31:35
INDEX 01 16:34:55
TRACK 04 AUDIO
TITLE "Nehmt meinen Dank, ihr holden Gönner K. 383"
PERFORMER "Hellen Kwon"
INDEX 00 22:08:05
INDEX 01 22:12:27
TRACK 05 AUDIO
TITLE "Mia speranza adorata - Ah, non sai qual pena K. 416"
PERFORMER "Hellen Kwon"
INDEX 00 25:47:35
INDEX 01 25:51:02
TRACK 06 AUDIO
TITLE "Vorrei spiegarvi, oh Dio K. 418"
PERFORMER "Hellen Kwon"
INDEX 00 35:04:65
INDEX 01 35:09:42
TRACK 07 AUDIO
TITLE "Bella mia fiamma, addio - Resta, oh cara K. 528"
PERFORMER "Hellen Kwon"
INDEX 00 42:18:05
INDEX 01 42:21:12
TRACK 08 AUDIO
TITLE "Schon lacht der holde Frühling K. 580"
PERFORMER "Hellen Kwon"
INDEX 00 52:09:40
INDEX 01 52:12:60
TRACK 09 AUDIO
TITLE "Chi sa, chi sa, qual sia K. 582"
PERFORMER "Hellen Kwon"
INDEX 00 60:56:52
INDEX 01 61:00:72



Показать сообщения:    

Текущее время: 08-Дек 09:05

Часовой пояс: UTC + 3


Вы не можете начинать темы
Вы не можете отвечать на сообщения
Вы не можете редактировать свои сообщения
Вы не можете удалять свои сообщения
Вы не можете голосовать в опросах
Вы не можете прикреплять файлы к сообщениям
Вы не можете скачивать файлы