(Classical / Piano Concerto) Franz Liszt - Konzerte fur Klavier und Orchester • Totentanz / Ференц Лист - Фортепианные концерты • Пляска смерти (Krystian Zimerman, Boston Symphony Orchestra, Seiji Ozawa, 1986) - 1988, FLAC (image+.cue) lossless


Статистика раздачи [Обновить пиров]
Размер:  219 MB   |    Зарегистрирован:  8 месяцев 17 дней   |    Скачан:  0 раз

Полного источника не было: Никогда

 
   
 
 
 

[Цитировать]

Franz Liszt | Ференц Лист
(1811–1886)



Konzerte für Klavier und OrchesterTotentanz
Концерты для фортепиано с оркестромПляска смерти


Krystian Zimerman piano
Boston Symphony Orchestra
Seiji Ozawa conductor


Жанр: Classical / Piano Concerto
Дата и место записи: Boston, Symphony Hall, IV.1987
Формат записи: DDD, Stereo
Год издания диска: 1988
Издатель (лейбл): Deutsche Grammophon
Номер по каталогу: 423 571-2
Аудиокодек: FLAC
Тип рипа: image+.cue
Битрейт аудио: lossless
Продолжительность: 55:48
Наличие сканов в содержимом раздачи: да
Источник: блог OdeonMusic


Tracklist / Треклист
Klavierkonzert Nr. 1 Es-dur, S. 124 - 18:35
I. Allegro maestoso - 5:32
  • II. Quasi adagio. — Allegretto vivace. — Allegro animato - 8:54
  • III. Allegro marziale animato. — Presto - 4:09
    Klavierkonzert Nr. 2 A-dur, S. 125 - 22:00
    I. Adagio sostenuto assai. — Allegro agitato assai - 7:27
  • II. Allegro moderato. — Allegro deciso - 8:19
  • III. Marziale un poco meno allegro - 4:23
  • IV. Allegro animato. — Stretto - 1:51
    Totentanz (Danse macabre), S. 126/2 - 15:12

    -

    EAC log / Отчёт EAC

    Exact Audio Copy V1.0 beta 3 from 29. August 2011
    EAC extraction logfile from 2. October 2013, 17:46
    Krystian Zimerman / Liszt - Piano Concertos, Totentanz - Krystian Zimerman, Seiji Ozawa
    Used drive : TSSTcorpCDDVDW SH-222BB Adapter: 2 ID: 1
    Read mode : Secure
    Utilize accurate stream : Yes
    Defeat audio cache : Yes
    Make use of C2 pointers : No
    Read offset correction : 6
    Overread into Lead-In and Lead-Out : No
    Fill up missing offset samples with silence : Yes
    Delete leading and trailing silent blocks : No
    Null samples used in CRC calculations : Yes
    Used interface : Native Win32 interface for Win NT & 2000
    Used output format : User Defined Encoder
    Selected bitrate : 1024 kBit/s
    Quality : High
    Add ID3 tag : No
    Command line compressor : C:\Program Files\Exact Audio Copy\Flac\flac.exe
    Additional command line options : -8 -V -T "TITLE=%title%" -T "ARTIST=%artist%" -T "ALBUMARTIST=%albumartist%" -T "ALBUM=%albumtitle%" -T "DATE=%year%" -T "TRACKNUMBER=%tracknr%" -T "TRACKTOTAL=%numtracks%" -T "GENRE=%genre%" -T "COMMENT=%comment%" -T "PERFORMER=%albuminterpret%" -T "COMPOSER=%composer%" %source% -o %dest%
    TOC of the extracted CD
    Track | Start | Length | Start sector | End sector
    ---------------------------------------------------------
    1 | 0:00.33 | 5:32.20 | 33 | 24952
    2 | 5:32.53 | 8:54.37 | 24953 | 65039
    3 | 14:27.15 | 4:08.43 | 65040 | 83682
    4 | 18:35.58 | 7:26.45 | 83683 | 117177
    5 | 26:02.28 | 8:19.10 | 117178 | 154612
    6 | 34:21.38 | 4:22.70 | 154613 | 174332
    7 | 38:44.33 | 1:51.20 | 174333 | 182677
    8 | 40:35.53 | 15:12.22 | 182678 | 251099
    Range status and errors
    Selected range
    Filename G:\Ripped general\[2485] Liszt – Piano Concertos, Totentanz – Krystian Zimerman, Seiji Ozawa\Liszt - Piano Concertos, Totentanz - Krystian Zimerman, Seiji Ozawa.wav
    Peak level 99.9 %
    Extraction speed 2.3 X
    Range quality 100.0 %
    Test CRC 8EB7CC4D
    Copy CRC 8EB7CC4D
    Copy OK
    No errors occurred
    AccurateRip summary
    Track 1 accurately ripped (confidence 16) [4101F0FF] (AR v2)
    Track 2 accurately ripped (confidence 16) [505722BE] (AR v2)
    Track 3 accurately ripped (confidence 15) [3C7C722A] (AR v2)
    Track 4 accurately ripped (confidence 15) [10AA675E] (AR v2)
    Track 5 accurately ripped (confidence 15) [0EE184A2] (AR v2)
    Track 6 accurately ripped (confidence 15) [53F21DDC] (AR v2)
    Track 7 accurately ripped (confidence 14) [51DDB280] (AR v2)
    Track 8 accurately ripped (confidence 15) [CA45BC76] (AR v2)
    All tracks accurately ripped
    End of status report

    auCDtect Task Manager log / Отчёт auCDtect Task Manager

    -----------------------
    DON'T MODIFY THIS FILE
    -----------------------
    PERFORMER: auCDtect Task Manager, ver. 1.5.1RC3 build 1.5.1.4
    Copyright (c) 2008-2010 y-soft. All rights reserved
    ANALYZER: auCDtect: CD records authenticity detector, version 0.8.2
    Copyright (c) 2004 Oleg Berngardt. All rights reserved.
    Copyright (c) 2004 Alexander Djourik. All rights reserved.
    FILE: Liszt. Klavierkonzerte, Totentanz (Zimerman, Ozawa).flac
    Size: 220304741 Hash: B4F5ED8108D3C8593F24B2C9B192BB0B Accuracy: -m0
    Conclusion: CDDA 100%
    Signature: FCD9692387A83B2E51C003A8CE53594EB3850279

    CUETools log / Отчёт CUETools

    [CUETools log; Date: 22.10.2013 19:57:38; Version: 2.1.4]
    Pregap length 00:00:33.
    [AccurateRip ID: 001013ab-006b5886-650d1408] found.
    Track [ CRC | V2 ] Status
    01 [1cb128c4|4101f0ff] (025+016/300) Accurately ripped
    02 [52793102|505722be] (025+016/298) Accurately ripped
    03 [780e081d|3c7c722a] (024+015/298) Accurately ripped
    04 [ebd8d4ca|10aa675e] (024+015/299) Accurately ripped
    05 [69b2f383|0ee184a2] (025+015/301) Accurately ripped
    06 [5b408559|53f21ddc] (025+015/302) Accurately ripped
    07 [fcc4d096|51ddb280] (025+014/303) Accurately ripped
    08 [973da283|ca45bc76] (025+015/289) Accurately ripped
    Offsetted by -1400:
    01 [32b08ef9] (002/300) Accurately ripped
    02 [df15361c] (002/298) Accurately ripped
    03 [283d0c22] (002/298) Accurately ripped
    04 [a2872bde] (002/299) Accurately ripped
    05 [0aa1527e] (002/301) Accurately ripped
    06 [dca17e46] (002/302) Accurately ripped
    07 [a10cb53a] (002/303) Accurately ripped
    08 [08f94d43] (002/289) Accurately ripped
    Offsetted by -1331:
    01 [5e496206] (059/300) Accurately ripped
    02 [9353a5e4] (056/298) Accurately ripped
    03 [c9e461c2] (059/298) Accurately ripped
    04 [1436d93c] (059/299) Accurately ripped
    05 [14fabf45] (059/301) Accurately ripped
    06 [be821236] (059/302) Accurately ripped
    07 [fa7f284f] (059/303) Accurately ripped
    08 [d633e47b] (059/289) Accurately ripped
    Offsetted by -1328:
    01 [25ea162e] (010/300) Accurately ripped
    02 [dd331e2e] (010/298) Accurately ripped
    03 [23d1ceeb] (010/298) Accurately ripped
    04 [579dc91d] (009/299) Accurately ripped
    05 [0cec1751] (010/301) Accurately ripped
    06 [4b62447a] (010/302) Accurately ripped
    07 [42af344c] (010/303) Accurately ripped
    08 [ea419203] (011/289) Accurately ripped
    Offsetted by -664:
    01 [255f87b8] (009/300) Accurately ripped
    02 [14aeee54] (009/298) Accurately ripped
    03 [ed93dc4f] (009/298) Accurately ripped
    04 [09e697ce] (009/299) Accurately ripped
    05 [f8173807] (009/301) Accurately ripped
    06 [7758edb0] (009/302) Accurately ripped
    07 [cbd16833] (009/303) Accurately ripped
    08 [40bf9a43] (007/289) Accurately ripped
    Offsetted by 549:
    01 [5fef062d] (031/300) Accurately ripped
    02 [51412442] (032/298) Accurately ripped
    03 [2fa8c789] (033/298) Accurately ripped
    04 [236bbedb] (033/299) Accurately ripped
    05 [9b4bfb03] (033/301) Accurately ripped
    06 [40f80516] (033/302) Accurately ripped
    07 [7af82fb6] (033/303) Accurately ripped
    08 [ed04aebb] (030/289) Accurately ripped
    Offsetted by 1267:
    01 [1d3d8354] (009/300) Accurately ripped
    02 [104f88a3] (009/298) Accurately ripped
    03 [6f81342f] (009/298) Accurately ripped
    04 [c6e73b44] (009/299) Accurately ripped
    05 [64a9580f] (009/301) Accurately ripped
    06 [5b08bc4f] (009/302) Accurately ripped
    07 [ee6a5c44] (009/303) Accurately ripped
    08 [ac78ea8b] (009/289) Accurately ripped
    Offsetted by 1288:
    01 [41d078e8] (004/300) Accurately ripped
    02 [8d1183d6] (004/298) Accurately ripped
    03 [310a9459] (004/298) Accurately ripped
    04 [8bee05c3] (004/299) Accurately ripped
    05 [5b948b34] (004/301) Accurately ripped
    06 [281f4393] (004/302) Accurately ripped
    07 [53f10352] (004/303) Accurately ripped
    08 [38d8a943] (004/289) Accurately ripped
    Offsetted by -1421:
    01 [353ccfc7] (000/300) No match (V2 was not tested)
    02 [5b3e1d37] (000/298) No match (V2 was not tested)
    03 [974b772c] (000/298) No match (V2 was not tested)
    04 [53899e68] (000/299) No match (V2 was not tested)
    05 [bee4d228] (000/301) No match (V2 was not tested)
    06 [44dbe5f3] (000/302) No match (V2 was not tested)
    07 [a5d48d53] (000/303) No match (V2 was not tested)
    08 [7c998e8b] (000/289) No match (V2 was not tested)
    Track Peak [ CRC32 ] [W/O NULL] [ LOG ]
    -- 99,9 [8EB7CC4D] [F9B91C8A] CRC32
    01 87,0 [33AACCB4] [E5D997C2]
    02 99,9 [BE0BDD3A] [09AD5F8C]
    03 79,4 [D72F4C5F] [111BA7B5]
    04 91,1 [05B0ACC6] [0EBD9586]
    05 95,9 [39397AD8] [DE6931CA]
    06 89,9 [54C270AB] [9D37A271]
    07 85,7 [FBC485CE] [2D1CE340]
    08 91,1 [A704125B] [1DB798E7]

    CUE sheet

    TITLE "Franz Liszt: Klavierkonzerte • Totentanz"
    PERFORMER "Krystian Zimerman"
    REM GENRE Classical
    REM DISCID 650D1408
    REM COMMENT "ExactAudioCopy v1.0b3"
    FILE "Liszt. Klavierkonzerte, Totentanz (Zimerman, Ozawa).flac" WAVE
    TRACK 01 AUDIO
    TITLE "Klavierkonzert Nr. 1 Es-dur, S. 124: I. Allegro maestoso"
    PERFORMER "Krystian Zimerman, Boston Symphony Orchestra & Seiji Ozawa"
    REM DATE 1987
    INDEX 00 00:00:00
    INDEX 01 00:00:33
    TRACK 02 AUDIO
    TITLE "Klavierkonzert Nr. 1 Es-dur, S. 124: II. Quasi adagio. — Allegretto vivace. — Allegro animato"
    PERFORMER "Krystian Zimerman, Boston Symphony Orchestra & Seiji Ozawa"
    REM DATE 1987
    INDEX 00 05:31:70
    INDEX 01 05:32:53
    TRACK 03 AUDIO
    TITLE "Klavierkonzert Nr. 1 Es-dur, S. 124: III. Allegro marziale animato. — Presto"
    PERFORMER "Krystian Zimerman, Boston Symphony Orchestra & Seiji Ozawa"
    REM DATE 1987
    INDEX 01 14:27:15
    TRACK 04 AUDIO
    TITLE "Klavierkonzert Nr. 2 A-dur, S. 125: I. Adagio sostenuto assai. — Allegro agitato assai"
    PERFORMER "Krystian Zimerman, Boston Symphony Orchestra & Seiji Ozawa"
    REM DATE 1987
    INDEX 00 18:29:48
    INDEX 01 18:35:58
    TRACK 05 AUDIO
    TITLE "Klavierkonzert Nr. 2 A-dur, S. 125: II. Allegro moderato. — Allegro deciso"
    PERFORMER "Krystian Zimerman, Boston Symphony Orchestra & Seiji Ozawa"
    REM DATE 1987
    INDEX 01 26:02:28
    TRACK 06 AUDIO
    TITLE "Klavierkonzert Nr. 2 A-dur, S. 125: III. Marziale un poco meno allegro"
    PERFORMER "Krystian Zimerman, Boston Symphony Orchestra & Seiji Ozawa"
    REM DATE 1987
    INDEX 01 34:21:38
    TRACK 07 AUDIO
    TITLE "Klavierkonzert Nr. 2 A-dur, S. 125: IV. Allegro animato. — Stretto"
    PERFORMER "Krystian Zimerman, Boston Symphony Orchestra & Seiji Ozawa"
    REM DATE 1987
    INDEX 01 38:44:33
    TRACK 08 AUDIO
    TITLE "Totentanz (Danse macabre), S. 126/2"
    PERFORMER "Krystian Zimerman, Boston Symphony Orchestra & Seiji Ozawa"
    REM DATE 1987
    INDEX 00 40:28:23
    INDEX 01 40:35:53
    -
    Konzerte für Klavier und Orchester • Totentanz (Brendel, Haitink)Franz Liszt — каталог раздач на rutracker.orgВсе мои раздачи / All my releases
    [teatrix.ru].t17779.torrent 
    Торрент: Зарегистрирован [ 2016-03-17 00:50 ] · 045FEC1A4322DAC6B09BA20C1C5499A20BF4A4

    Скачать .torrent

    Скачать

    19 KB

    Статус: проверено
    Скачан: 0 раз
    Размер: 219 MB
    terms.php



  • Быстрый ответ

    Имя:

          
    Для отправки сообщений необходимо включить JavaScript
    Показать сообщения:    

    Текущее время: 03-Дек 18:42

    Часовой пояс: UTC + 3


    Вы можете начинать темы
    Вы можете отвечать на сообщения
    Вы не можете редактировать свои сообщения
    Вы не можете удалять свои сообщения
    Вы не можете голосовать в опросах
    Вы не можете прикреплять файлы к сообщениям
    Вы можете скачивать файлы