(Classical, Baroque, Strings, Concerto Grosso) Pieter Hellendaal - Sei Concerti Grossi Op. 3 [European Community Baroque Orchestra, Roy Goodman, Andrew Manze], Channel Classics 1993, FLAC (image+.cue), lossless


Статистика раздачи [Обновить пиров]
Размер:  396 MB   |    Зарегистрирован:  8 месяцев 25 дней   |    Скачан:  1 раз

Полного источника не было: 7 месяцев 12 дней

 
   
 
 
 

[Цитировать]

Pieter HellendaalSei Concerti Grossi Op. 3
per due violini concertini, archi e basso continuo

Prima edizione: London [John Walsh], c. 1758-- Жанр: Classical, Baroque, Strings, Concerto Grosso
Страна-производитель диска: EU
Год издания: 1993
Лейбл: Channel Classics
Номер в каталоге: CCS 3492
Аудиокодек: FLAC
Тип рипа: image+.cue
Битрейт аудио: lossless
Продолжительность: 01:12:25
Наличие сканов: имеются
Источник: релизёр
-European Community Baroque Orchestra
Roy Goodman direttore e violinista
Andrew Manze violinista

Треклист

01. Concerto Grosso No. 1 in Sol minore per due violini, archi e basso continuo - I. Overture ed Allegro [00:03:53]
02. II. Largo [00:02:33]
03. III. Presto [00:01:34]
04. IV. Menuet [00:02:23]
05. Concerto Grosso No. 2 in Re minore per due violini, archi e basso continuo - I. Overture [00:01:41]
06. II. Allegro [00:02:41]
07. III. Affettuoso [00:02:11]
08. IV. Presto [00:02:58]
09. V. Borea [00:01:04]
10. Concerto Grosso No. 3 in Fa maggiore per due violini, archi e basso continuo - I. Largo [00:02:04]
11. II. Allegro [00:01:54]
12. III. Adagio [00:02:22]
13. IV. Alla breve [00:01:28]
14. V. March [00:02:31]
15. Concerto Grosso No. 4 in Mi bemolle maggiore per due violini, archi e basso continuo - I. Grave sostenuto [00:03:41]
16. II. Alla breve [00:01:50]
17. III. Affettuoso [00:01:01]
18. IV. Presto [00:01:32]
19. V. Pastorale [00:03:10]
20. Concerto Grosso No. 5 in Re maggiore per due violini, archi e basso continuo - I. Largo [00:03:56]
21. II. Allegro [00:03:59]
22. III. Larghetto [00:03:52]
23. IV. Allegro [00:02:19]
24. V. March [00:02:24]
25. Concerto Grosso No. 6 in Fa maggiore per due violini, archi e basso continuo - I. Largo [00:01:44]
26. II. Allegro [00:04:11]
27. III. Adagio [00:02:54]
28. IV. Allegro [00:02:40]
29. V. Menuet [00:01:43]

LOG EAC

Exact Audio Copy V1.0 beta 3 from 29. August 2011
EAC extraction logfile from 3. August 2012, 19:46
European Community Baroque Orchestra, Roy Goodman [direttore e violinista], Andrew Manze [violinista] / Pieter Hellendaal. Sei Concerti Grossi Op. 3 [Channel Classics 1993].
Used drive : HL-DT-STDVDRAM GSA-H10A Adapter: 0 ID: 0
Read mode : Secure
Utilize accurate stream : Yes
Defeat audio cache : Yes
Make use of C2 pointers : No
Read offset correction : 667
Overread into Lead-In and Lead-Out : No
Fill up missing offset samples with silence : Yes
Delete leading and trailing silent blocks : No
Null samples used in CRC calculations : Yes
Used interface : Native Win32 interface for Win NT & 2000
Used output format : User Defined Encoder
Selected bitrate : 1024 kBit/s
Quality : High
Add ID3 tag : No
Command line compressor : C:\Program Files\Exact Audio Copy\Flac\flac.exe
Additional command line options : -8 -V -T "TITLE=%title%" -T "ARTIST=%artist%" -T "ALBUMARTIST=%albumartist%" -T "ALBUM=%albumtitle%" -T "DATE=%year%" -T "TRACKNUMBER=%tracknr%" -T "TRACKTOTAL=%numtracks%" -T "GENRE=%genre%" -T "COMMENT=%comment%" -T "PERFORMER=%albuminterpret%" -T "COMPOSER=%composer%" %source% -o %dest%
TOC of the extracted CD
Track | Start | Length | Start sector | End sector
---------------------------------------------------------
1 | 0:00.00 | 3:53.43 | 0 | 17517
2 | 3:53.43 | 2:33.27 | 17518 | 29019
3 | 6:26.70 | 1:34.55 | 29020 | 36124
4 | 8:01.50 | 2:33.40 | 36125 | 47639
5 | 10:35.15 | 1:41.40 | 47640 | 55254
6 | 12:16.55 | 2:41.13 | 55255 | 67342
7 | 14:57.68 | 2:11.32 | 67343 | 77199
8 | 17:09.25 | 2:58.00 | 77200 | 90549
9 | 20:07.25 | 1:13.33 | 90550 | 96057
10 | 21:20.58 | 2:04.05 | 96058 | 105362
11 | 23:24.63 | 1:54.30 | 105363 | 113942
12 | 25:19.18 | 2:22.42 | 113943 | 124634
13 | 27:41.60 | 1:28.58 | 124635 | 131292
14 | 29:10.43 | 2:41.62 | 131293 | 143429
15 | 31:52.30 | 3:41.40 | 143430 | 160044
16 | 35:33.70 | 1:50.63 | 160045 | 168357
17 | 37:24.58 | 1:01.15 | 168358 | 172947
18 | 38:25.73 | 1:32.70 | 172948 | 179917
19 | 39:58.68 | 3:17.00 | 179918 | 194692
20 | 43:15.68 | 3:56.57 | 194693 | 212449
21 | 47:12.50 | 3:59.70 | 212450 | 230444
22 | 51:12.45 | 3:52.35 | 230445 | 247879
23 | 55:05.05 | 2:19.18 | 247880 | 258322
24 | 57:24.23 | 2:32.37 | 258323 | 269759
25 | 59:56.60 | 1:44.00 | 269760 | 277559
26 | 61:40.60 | 4:11.15 | 277560 | 296399
27 | 65:52.00 | 2:54.68 | 296400 | 309517
28 | 68:46.68 | 2:40.00 | 309518 | 321517
29 | 71:26.68 | 1:43.17 | 321518 | 329259
Range status and errors
Selected range
Filename D:\VARIA\[Hellendaal] Sei Concerti Grossi Op. 3 [Channel Classics 1993]\Pieter Hellendaal. Sei Concerti Grossi Op. 3 [Channel Classics 1993].wav
Peak level 98.1 %
Extraction speed 7.7 X
Range quality 100.0 %
Test CRC E0AC1FC9
Copy CRC E0AC1FC9
Copy OK
No errors occurred
AccurateRip summary
Track 1 accurately ripped (confidence 3) [A1F89AFB] (AR v1)
Track 2 accurately ripped (confidence 3) [428C90BC] (AR v1)
Track 3 accurately ripped (confidence 3) [E7872F3E] (AR v1)
Track 4 accurately ripped (confidence 3) [833D7E74] (AR v1)
Track 5 accurately ripped (confidence 3) [F9CEAF21] (AR v1)
Track 6 accurately ripped (confidence 3) [3DA57A00] (AR v1)
Track 7 accurately ripped (confidence 3) [83C045CA] (AR v1)
Track 8 accurately ripped (confidence 3) [B6C11C3C] (AR v1)
Track 9 accurately ripped (confidence 3) [C3C8B0DF] (AR v1)
Track 10 accurately ripped (confidence 3) [9F86F550] (AR v1)
Track 11 accurately ripped (confidence 3) [B7AE1B98] (AR v1)
Track 12 accurately ripped (confidence 3) [5B840E76] (AR v1)
Track 13 accurately ripped (confidence 3) [AB9B18DB] (AR v1)
Track 14 accurately ripped (confidence 3) [B88846B2] (AR v1)
Track 15 accurately ripped (confidence 3) [79712D09] (AR v1)
Track 16 accurately ripped (confidence 3) [F1DE02B3] (AR v1)
Track 17 accurately ripped (confidence 3) [D538F5DC] (AR v1)
Track 18 accurately ripped (confidence 3) [88CFFF74] (AR v1)
Track 19 accurately ripped (confidence 3) [68863754] (AR v1)
Track 20 accurately ripped (confidence 3) [6EF0AEB7] (AR v1)
Track 21 accurately ripped (confidence 3) [9B86A115] (AR v1)
Track 22 accurately ripped (confidence 3) [AC24EB55] (AR v1)
Track 23 accurately ripped (confidence 3) [3C141F04] (AR v1)
Track 24 accurately ripped (confidence 3) [02B45E04] (AR v1)
Track 25 accurately ripped (confidence 3) [D70BDE60] (AR v1)
Track 26 accurately ripped (confidence 3) [1054566F] (AR v1)
Track 27 accurately ripped (confidence 3) [8F9D2472] (AR v1)
Track 28 accurately ripped (confidence 3) [ECEC4F26] (AR v1)
Track 29 accurately ripped (confidence 3) [96EE1BEB] (AR v1)
All tracks accurately ripped
End of status report

.CUE

REM GENRE Musica barocca
REM DATE 1993
REM DISCID A911261D
REM COMMENT "TitoManlio"
PERFORMER "European Community Baroque Orchestra, Roy Goodman [direttore e violinista], Andrew Manze [violinista]"
TITLE "Pieter Hellendaal. Sei Concerti Grossi Op. 3 [Channel Classics 1993]."
FILE "Pieter Hellendaal. Sei Concerti Grossi Op. 3 [Channel Classics 1993].flac" WAVE
TRACK 01 AUDIO
TITLE "Concerto Grosso No. 1 in Sol minore per due violini, archi e basso continuo - I. Overture ed Allegro"
PERFORMER "European Community Baroque Orchestra, Roy Goodman [direttore e violinista], Andrew Manze [violinista]"
INDEX 01 00:00:00
TRACK 02 AUDIO
TITLE "Concerto Grosso No. 1 in Sol minore per due violini, archi e basso continuo - II. Largo"
PERFORMER "European Community Baroque Orchestra, Roy Goodman [direttore e violinista], Andrew Manze [violinista]"
INDEX 01 03:53:43
TRACK 03 AUDIO
TITLE "Concerto Grosso No. 1 in Sol minore per due violini, archi e basso continuo - III. Presto"
PERFORMER "European Community Baroque Orchestra, Roy Goodman [direttore e violinista], Andrew Manze [violinista]"
INDEX 01 06:26:70
TRACK 04 AUDIO
TITLE "Concerto Grosso No. 1 in Sol minore per due violini, archi e basso continuo - IV. Menuet"
PERFORMER "European Community Baroque Orchestra, Roy Goodman [direttore e violinista], Andrew Manze [violinista]"
INDEX 01 08:01:50
TRACK 05 AUDIO
TITLE "Concerto Grosso No. 2 in Re minore per due violini, archi e basso continuo - I. Overture"
PERFORMER "European Community Baroque Orchestra, Roy Goodman [direttore e violinista], Andrew Manze [violinista]"
INDEX 00 10:24:63
INDEX 01 10:35:15
TRACK 06 AUDIO
TITLE "Concerto Grosso No. 2 in Re minore per due violini, archi e basso continuo - II. Allegro"
PERFORMER "European Community Baroque Orchestra, Roy Goodman [direttore e violinista], Andrew Manze [violinista]"
INDEX 01 12:16:55
TRACK 07 AUDIO
TITLE "Concerto Grosso No. 2 in Re minore per due violini, archi e basso continuo - III. Affettuoso"
PERFORMER "European Community Baroque Orchestra, Roy Goodman [direttore e violinista], Andrew Manze [violinista]"
INDEX 01 14:57:68
TRACK 08 AUDIO
TITLE "Concerto Grosso No. 2 in Re minore per due violini, archi e basso continuo - IV. Presto"
PERFORMER "European Community Baroque Orchestra, Roy Goodman [direttore e violinista], Andrew Manze [violinista]"
INDEX 01 17:09:25
TRACK 09 AUDIO
TITLE "Concerto Grosso No. 2 in Re minore per due violini, archi e basso continuo - V. Borea"
PERFORMER "European Community Baroque Orchestra, Roy Goodman [direttore e violinista], Andrew Manze [violinista]"
INDEX 01 20:07:25
TRACK 10 AUDIO
TITLE "Concerto Grosso No. 3 in Fa maggiore per due violini, archi e basso continuo - I. Largo"
PERFORMER "European Community Baroque Orchestra, Roy Goodman [direttore e violinista], Andrew Manze [violinista]"
INDEX 00 21:11:60
INDEX 01 21:20:58
TRACK 11 AUDIO
TITLE "Concerto Grosso No. 3 in Fa maggiore per due violini, archi e basso continuo - II. Allegro"
PERFORMER "European Community Baroque Orchestra, Roy Goodman [direttore e violinista], Andrew Manze [violinista]"
INDEX 01 23:24:63
TRACK 12 AUDIO
TITLE "Concerto Grosso No. 3 in Fa maggiore per due violini, archi e basso continuo - III. Adagio"
PERFORMER "European Community Baroque Orchestra, Roy Goodman [direttore e violinista], Andrew Manze [violinista]"
INDEX 01 25:19:18
TRACK 13 AUDIO
TITLE "Concerto Grosso No. 3 in Fa maggiore per due violini, archi e basso continuo - IV. Alla breve"
PERFORMER "European Community Baroque Orchestra, Roy Goodman [direttore e violinista], Andrew Manze [violinista]"
INDEX 01 27:41:60
TRACK 14 AUDIO
TITLE "Concerto Grosso No. 3 in Fa maggiore per due violini, archi e basso continuo - V. March"
PERFORMER "European Community Baroque Orchestra, Roy Goodman [direttore e violinista], Andrew Manze [violinista]"
INDEX 01 29:10:43
TRACK 15 AUDIO
TITLE "Concerto Grosso No. 4 in Mi bemolle maggiore per due violini, archi e basso continuo - I. Grave sostenuto"
PERFORMER "European Community Baroque Orchestra, Roy Goodman [direttore e violinista], Andrew Manze [violinista]"
INDEX 00 31:42:18
INDEX 01 31:52:30
TRACK 16 AUDIO
TITLE "Concerto Grosso No. 4 in Mi bemolle maggiore per due violini, archi e basso continuo - II. Alla breve"
PERFORMER "European Community Baroque Orchestra, Roy Goodman [direttore e violinista], Andrew Manze [violinista]"
INDEX 01 35:33:70
TRACK 17 AUDIO
TITLE "Concerto Grosso No. 4 in Mi bemolle maggiore per due violini, archi e basso continuo - III. Affettuoso"
PERFORMER "European Community Baroque Orchestra, Roy Goodman [direttore e violinista], Andrew Manze [violinista]"
INDEX 01 37:24:58
TRACK 18 AUDIO
TITLE "Concerto Grosso No. 4 in Mi bemolle maggiore per due violini, archi e basso continuo - IV. Presto"
PERFORMER "European Community Baroque Orchestra, Roy Goodman [direttore e violinista], Andrew Manze [violinista]"
INDEX 01 38:25:73
TRACK 19 AUDIO
TITLE "Concerto Grosso No. 4 in Mi bemolle maggiore per due violini, archi e basso continuo - V. Pastorale"
PERFORMER "European Community Baroque Orchestra, Roy Goodman [direttore e violinista], Andrew Manze [violinista]"
INDEX 01 39:58:68
TRACK 20 AUDIO
TITLE "Concerto Grosso No. 5 in Re maggiore per due violini, archi e basso continuo - I. Largo"
PERFORMER "European Community Baroque Orchestra, Roy Goodman [direttore e violinista], Andrew Manze [violinista]"
INDEX 00 43:09:28
INDEX 01 43:15:68
TRACK 21 AUDIO
TITLE "Concerto Grosso No. 5 in Re maggiore per due violini, archi e basso continuo - II. Allegro"
PERFORMER "European Community Baroque Orchestra, Roy Goodman [direttore e violinista], Andrew Manze [violinista]"
INDEX 01 47:12:50
TRACK 22 AUDIO
TITLE "Concerto Grosso No. 5 in Re maggiore per due violini, archi e basso continuo - III. Larghetto"
PERFORMER "European Community Baroque Orchestra, Roy Goodman [direttore e violinista], Andrew Manze [violinista]"
INDEX 01 51:12:45
TRACK 23 AUDIO
TITLE "Concerto Grosso No. 5 in Re maggiore per due violini, archi e basso continuo - IV. Allegro"
PERFORMER "European Community Baroque Orchestra, Roy Goodman [direttore e violinista], Andrew Manze [violinista]"
INDEX 01 55:05:05
TRACK 24 AUDIO
TITLE "Concerto Grosso No. 5 in Re maggiore per due violini, archi e basso continuo - V. March"
PERFORMER "European Community Baroque Orchestra, Roy Goodman [direttore e violinista], Andrew Manze [violinista]"
INDEX 01 57:24:23
TRACK 25 AUDIO
TITLE "Concerto Grosso No. 6 in Fa maggiore per due violini, archi e basso continuo - I. Largo"
PERFORMER "European Community Baroque Orchestra, Roy Goodman [direttore e violinista], Andrew Manze [violinista]"
INDEX 00 59:48:23
INDEX 01 59:56:60
TRACK 26 AUDIO
TITLE "Concerto Grosso No. 6 in Fa maggiore per due violini, archi e basso continuo - II. Allegro"
PERFORMER "European Community Baroque Orchestra, Roy Goodman [direttore e violinista], Andrew Manze [violinista]"
INDEX 01 61:40:60
TRACK 27 AUDIO
TITLE "Concerto Grosso No. 6 in Fa maggiore per due violini, archi e basso continuo - III. Adagio"
PERFORMER "European Community Baroque Orchestra, Roy Goodman [direttore e violinista], Andrew Manze [violinista]"
INDEX 01 65:52:00
TRACK 28 AUDIO
TITLE "Concerto Grosso No. 6 in Fa maggiore per due violini, archi e basso continuo - IV. Allegro"
PERFORMER "European Community Baroque Orchestra, Roy Goodman [direttore e violinista], Andrew Manze [violinista]"
INDEX 01 68:46:68
TRACK 29 AUDIO
TITLE "Concerto Grosso No. 6 in Fa maggiore per due violini, archi e basso continuo - V. Menuet"
PERFORMER "European Community Baroque Orchestra, Roy Goodman [direttore e violinista], Andrew Manze [violinista]"
INDEX 01 71:26:68
--
[teatrix.ru].t17780.torrent 
Торрент: Зарегистрирован [ 2016-03-17 00:50 ] · FFECDD1CC95BEBA8477428F5C7BA4B81A0EFC235

Скачать .torrent

Скачать

17 KB

Статус: проверено
Скачан: 1 раз
Размер: 396 MB
terms.php



Быстрый ответ

Имя:

      
Для отправки сообщений необходимо включить JavaScript
Показать сообщения:    

Текущее время: 11-Дек 07:09

Часовой пояс: UTC + 3


Вы можете начинать темы
Вы можете отвечать на сообщения
Вы не можете редактировать свои сообщения
Вы не можете удалять свои сообщения
Вы не можете голосовать в опросах
Вы не можете прикреплять файлы к сообщениям
Вы можете скачивать файлы