Музыкальная история - Андрей Макаревич (Сергей Миров) [2006, Музыка, DVB]


Статистика раздачи [Обновить пиров]
Размер:  621 MB   |    Зарегистрирован:  8 месяцев 24 дня   |    Скачан:  0 раз

Полного источника не было: Никогда

 
   
 
 
 

[Цитировать]

Музыкальная история - Андрей Макаревич
Год выпуска: 2006
Страна: Россия
Жанр: Музыка
Продолжительность: 00:25:52
Перевод: Не требуется
Режиссер: Сергей Миров
Описание: История музыки и история страны неразрывно связаны, однако современное поколение забывает, а порой даже и не знает имена знаменитых артистов недавнего прошлого. В программе "Музыкальная история" кумиры современности рассказывают о самых ярких музыкальных впечатлениях своей жизни, о встречах с людьми, которые повлияли на их творчество, о легендарных артистах прошлого. В лёгкой развлекательной форме программа доставит настоящее удовольствие старшему поколению и займётся музыкальным образованием молодого поколения.
Качество: DVB
Формат: MPG
Видео: MPEG Video 720×576 (4:3) 3028 Kbps 25.000 fps
Аудио: MPEG Audio Layer 2 48000Hz stereo 192 kbps 2 channels

MediaInfo

P:\МУЗЫКАЛЬНАЯ ИСТОРИЯ_А_МАКАРЕВИЧ.mpg
General
Complete name : P:\МУЗЫКАЛЬНАЯ ИСТОРИЯ_А_МАКАРЕВИЧ.mpg
Format : MPEG-PS
File size : 621 MiB
Duration : 25mn 52s
Overall bit rate : 3 353 Kbps
Video #224
ID : 224 (0xE0)
Format : MPEG Video
Format version : Version 2
Format profile : Main@Main
Format settings, Matrix : Default
Duration : 25mn 52s
Bit rate mode : Variable
Bit rate : 3 028 Kbps
Nominal bit rate : 15.0 Mbps
Width : 720 pixels
Height : 576 pixels
Display aspect ratio : 4:3
Frame rate : 25.000 fps
Standard : PAL
Colorimetry : 4:2:0
Scan type : Interlaced
Scan order : Top Field First
Bits/(Pixel*Frame) : 0.292
Stream size : 560 MiB (90%)
Audio #192
ID : 192 (0xC0)
Format : MPEG Audio
Format version : Version 1
Format profile : Layer 2
Duration : 25mn 52s
Bit rate mode : Constant
Bit rate : 192 Kbps
Channel(s) : 2 channels
Sampling rate : 48.0 KHz
Resolution : 16 bits
Stream size : 35.5 MiB (6%)

Скриншоты

[teatrix.ru].t17786.torrent 
Торрент: Зарегистрирован [ 2016-03-17 00:50 ] · 1B30BD50960F1FDEEB7B6C451F3450F180A1377E

Скачать .torrent

Скачать

13 KB

Статус: проверено
Скачан: 0 раз
Размер: 621 MB
terms.php



Быстрый ответ

Имя:

      
Для отправки сообщений необходимо включить JavaScript
Показать сообщения:    

Текущее время: 10-Дек 19:37

Часовой пояс: UTC + 3


Вы можете начинать темы
Вы можете отвечать на сообщения
Вы не можете редактировать свои сообщения
Вы не можете удалять свои сообщения
Вы не можете голосовать в опросах
Вы не можете прикреплять файлы к сообщениям
Вы можете скачивать файлы