(Vocal/Instrumental) Musica Amphion - Music From The Golden Age Of Rembrandt (Sweelinck, Van Eyck, Verrijt, Buns a.o. - Belder 2006) - 2006, APE (image+.cue) lossless


 

[Цитировать]

Musica Amphion - Music From The Golden Age Of Rembrandt
Жанр: Vocal/Instrumental
Страна-производитель диска: EU
Год издания диска: 2006
Издатель (лейбл): Brilliant
Номер по каталогу: 93100
Дата записи: 2006
Аудиокодек: APE
Тип рипа: image+.cue
Битрейт аудио: lossless
Продолжительность: 1'05'19 + 1'06'38
Источник: собственный рип
Наличие сканов в содержимом раздачи: да
Треклист:

CD1

Cornelis Schuyt
1. Pavaen En Gagliarda 10
2. Pavaen En Gagliarda 10
3. Canzona 'La Barca'
Jan Pieterszoon Sweelinck
4. Psalm 1
5. Hexachord Fantasia
6. More Palatino
7. Pavaen Lachrimae
Nicalas Vallet
8. Fortune Angloise/Malle Sijmen/Slaep, Zoete Slaep
Cornelis Thymanszoon Padbrue
9. Madrigal 'Dat Ick Beovert Ben'
Herman Hollanders
10. Antequam Comedam Suspiro
11. Dolor Me Compellit Dicere
12. Cum Inferni Tenebris
Pieter Cornet
13. Salve Regina

CD2

Johan Albert Ban
1. Me Veux Tu Voir Mourir
Jacob van Eyck
2. Doen Daphne D'Over Schoone Maegt
Anonymus
3. Daphne Variaties
Johannes Schop
4. Almande
5. Sarabande Op La Suedoise
6. Brande Mr. Primerose?
Tarquinio Merula
7. 'T Hane En't Henne-Gekray
Bernardon Barlasca
8. Vijfde Fanatasia
Christian Herwich
9. Concerto
Constantijn Huygens
10. Usquequo, Domine (III)
11. Quare Tristes Es (IX)
12. De Profundis (XVII)
13. Air (XXXV)
Jan Baptist Verrijt
14. Quae Habitas In Hortis
Anthoni van Noordt
15. Psalm 2
16. Vivace, Adagio
17. Allegro
Carel Hacquart
18. Soavemente, Canzona, Adagio, Bizzaria, Grave, Allegro
Benedictus Buns
19. Adagio
20. Allegro
21. Adagio
22. Giga & Adagio
Исполнители:
Musica Amphion
Rémy Baudet, violin
Elisabeth Ingenhousz, violin
Esther van der Eijk, viola
Johannes Boer, viola da gamba
Erik Beijer, viola da gamba
Saskia Coolen, viola da gamba
Wilma van der Wardt, viola da gamba
Harjo Neutkens,lute
Menno van Delft,harpsichord
Caroline Stam, soprano
Dorien Lievers, alto
Nico van der Meel, tenor
Bas Ramselaar, bass
Pieter-Jan Beider, harpsichord, organ, recorder & direction

Лог создания рипа

CD1

Exact Audio Copy V1.0 beta 3 from 29. August 2011
EAC extraction logfile from 24. October 2013, 13:09
Musica Amphion / Music from the Golden Age of Rembrandt, Belder 2006 CD1
Used drive : TSSTcorpCDDVDW SH-216AB Adapter: 0 ID: 1
Read mode : Secure
Utilize accurate stream : Yes
Defeat audio cache : Yes
Make use of C2 pointers : No
Read offset correction : 6
Overread into Lead-In and Lead-Out : No
Fill up missing offset samples with silence : Yes
Delete leading and trailing silent blocks : No
Null samples used in CRC calculations : Yes
Used interface : Native Win32 interface for Win NT & 2000
Used output format : Monkey's Audio Lossless Encoder
Selected bitrate : High Lossless Compression
Quality : High
Add ID3 tag : Yes
Command line compressor : K:\Program Files (x86)\Exact Audio Copy\Monkeys Audio\Monkey's Audio\MAC.exe
Additional command line options : -6 -V -T "ARTIST=%artist%" -T "TITLE=%title%" -T "ALBUM=%albumtitle%" -T "DATE=%year%" -T "TRACKNUMBER=%tracknr%" -T "GENRE=%genre%" -T "COMMENT=%comment%" -T "BAND=%albuminterpret%" -T "ALBUMARTIST=%albuminterpret%" -T "COMPOSER=%composer%" %haslyrics%--tag-from-file=LYRICS="%lyricsfile%"%haslyrics% -T "DISCNUMBER=%cdnumber%" -T "TOTALDISCS=%totalcds%" -T "TOTALTRACKS=%numtracks%" %hascover%--picture="%coverfile%"%hascover% %source% -o %dest%
TOC of the extracted CD
Track | Start | Length | Start sector | End sector
---------------------------------------------------------
1 | 0:00.00 | 3:44.61 | 0 | 16860
2 | 3:44.61 | 1:11.55 | 16861 | 22240
3 | 4:56.41 | 2:07.41 | 22241 | 31806
4 | 7:04.07 | 6:24.40 | 31807 | 60646
5 | 13:28.47 | 9:39.62 | 60647 | 104133
6 | 23:08.34 | 3:46.43 | 104134 | 121126
7 | 26:55.02 | 6:00.38 | 121127 | 148164
8 | 32:55.40 | 4:06.37 | 148165 | 166651
9 | 37:02.02 | 4:01.70 | 166652 | 184796
10 | 41:03.72 | 3:16.43 | 184797 | 199539
11 | 44:20.40 | 4:14.08 | 199540 | 218597
12 | 48:34.48 | 5:39.71 | 218598 | 244093
13 | 54:14.44 | 11:05.05 | 244094 | 293973
Range status and errors
Selected range
Filename I:\Foobar-EAC\Musica Amphion - Music from the Golden Age of Rembrandt, Belder 2006 CD1.wav
Peak level 100.0 %
Extraction speed 7.5 X
Range quality 100.0 %
Test CRC 0D773B55
Copy CRC 0D773B55
Copy OK
No errors occurred
AccurateRip summary
Track 1 accurately ripped (confidence 2) [2C69A688] (AR v2)
Track 2 accurately ripped (confidence 2) [E3C93082] (AR v2)
Track 3 accurately ripped (confidence 2) [2884C70F] (AR v2)
Track 4 accurately ripped (confidence 2) [C49F4524] (AR v2)
Track 5 accurately ripped (confidence 2) [61D3932C] (AR v2)
Track 6 accurately ripped (confidence 2) [5C0F17F0] (AR v2)
Track 7 accurately ripped (confidence 2) [2E39AE09] (AR v2)
Track 8 accurately ripped (confidence 2) [6BA68168] (AR v2)
Track 9 accurately ripped (confidence 2) [12AA384E] (AR v2)
Track 10 accurately ripped (confidence 2) [FC02FE89] (AR v2)
Track 11 accurately ripped (confidence 2) [F77DFEE0] (AR v2)
Track 12 accurately ripped (confidence 2) [C72843EA] (AR v2)
Track 13 accurately ripped (confidence 2) [C94B79FA] (AR v2)
All tracks accurately ripped
End of status report
---- CUETools DB Plugin V2.1.3
[CTDB TOCID: J5Esw6W3DeW7jndKDIwUh4JubsU-] found, Submit result: J5Esw6W3DeW7jndKDIwUh4JubsU- has been confirmed
[e238b5d8] (6/6) Accurately ripped
==== Log checksum 18A786AEAD79EE377A6C05B60CA45AF73A8A680ACF2E19015581496ACFCABD62 ====

CD2

Exact Audio Copy V1.0 beta 3 from 29. August 2011
EAC extraction logfile from 24. October 2013, 13:24
Musica Amphion / Music from the Golden Age of Rembrandt, Belder 2006 CD2
Used drive : TSSTcorpCDDVDW SE-208AB Adapter: 1 ID: 0
Read mode : Secure
Utilize accurate stream : Yes
Defeat audio cache : Yes
Make use of C2 pointers : No
Read offset correction : 6
Overread into Lead-In and Lead-Out : No
Fill up missing offset samples with silence : Yes
Delete leading and trailing silent blocks : No
Null samples used in CRC calculations : Yes
Used interface : Native Win32 interface for Win NT & 2000
Used output format : Monkey's Audio Lossless Encoder
Selected bitrate : High Lossless Compression
Quality : High
Add ID3 tag : Yes
Command line compressor : K:\Program Files (x86)\Exact Audio Copy\Monkeys Audio\Monkey's Audio\MAC.exe
Additional command line options : -6 -V -T "ARTIST=%artist%" -T "TITLE=%title%" -T "ALBUM=%albumtitle%" -T "DATE=%year%" -T "TRACKNUMBER=%tracknr%" -T "GENRE=%genre%" -T "COMMENT=%comment%" -T "BAND=%albuminterpret%" -T "ALBUMARTIST=%albuminterpret%" -T "COMPOSER=%composer%" %haslyrics%--tag-from-file=LYRICS="%lyricsfile%"%haslyrics% -T "DISCNUMBER=%cdnumber%" -T "TOTALDISCS=%totalcds%" -T "TOTALTRACKS=%numtracks%" %hascover%--picture="%coverfile%"%hascover% %source% -o %dest%
TOC of the extracted CD
Track | Start | Length | Start sector | End sector
---------------------------------------------------------
1 | 0:00.00 | 1:19.10 | 0 | 5934
2 | 1:19.10 | 7:16.42 | 5935 | 38676
3 | 8:35.52 | 4:13.22 | 38677 | 57673
4 | 12:48.74 | 1:40.66 | 57674 | 65239
5 | 14:29.65 | 0:35.03 | 65240 | 67867
6 | 15:04.68 | 1:08.70 | 67868 | 73037
7 | 16:13.63 | 1:55.64 | 73038 | 81726
8 | 18:09.52 | 2:21.49 | 81727 | 92350
9 | 20:31.26 | 2:39.34 | 92351 | 104309
10 | 23:10.60 | 2:53.20 | 104310 | 117304
11 | 26:04.05 | 2:17.70 | 117305 | 127649
12 | 28:22.00 | 4:29.31 | 127650 | 147855
13 | 32:51.31 | 2:09.62 | 147856 | 157592
14 | 35:01.18 | 2:31.02 | 157593 | 168919
15 | 37:32.20 | 8:43.35 | 168920 | 208179
16 | 46:15.55 | 2:51.02 | 208180 | 221006
17 | 49:06.57 | 1:42.30 | 221007 | 228686
18 | 50:49.12 | 7:01.55 | 228687 | 260316
19 | 57:50.67 | 2:17.05 | 260317 | 270596
20 | 60:07.72 | 1:57.16 | 270597 | 279387
21 | 62:05.13 | 1:47.09 | 279388 | 287421
22 | 63:52.22 | 2:45.56 | 287422 | 299852
Range status and errors
Selected range
Filename I:\Foobar-EAC\Musica Amphion - Music from the Golden Age of Rembrandt, Belder 2006 CD2.wav
Peak level 100.0 %
Extraction speed 4.6 X
Range quality 100.0 %
Test CRC CEDB34C9
Copy CRC CEDB34C9
Copy OK
No errors occurred
AccurateRip summary
Track 1 accurately ripped (confidence 2) [6D4F605F] (AR v2)
Track 2 accurately ripped (confidence 2) [73B1364E] (AR v2)
Track 3 accurately ripped (confidence 2) [7954C04E] (AR v2)
Track 4 accurately ripped (confidence 2) [BCB33368] (AR v2)
Track 5 accurately ripped (confidence 2) [B1B53B79] (AR v2)
Track 6 accurately ripped (confidence 2) [149D11CE] (AR v2)
Track 7 accurately ripped (confidence 2) [79E09320] (AR v2)
Track 8 accurately ripped (confidence 2) [33DF93D7] (AR v2)
Track 9 accurately ripped (confidence 2) [E913A846] (AR v2)
Track 10 accurately ripped (confidence 2) [F7828690] (AR v2)
Track 11 accurately ripped (confidence 2) [9B20577C] (AR v2)
Track 12 accurately ripped (confidence 2) [66C86273] (AR v2)
Track 13 accurately ripped (confidence 2) [EB9EECE1] (AR v2)
Track 14 accurately ripped (confidence 2) [36ABA170] (AR v2)
Track 15 accurately ripped (confidence 2) [E2F4676D] (AR v2)
Track 16 accurately ripped (confidence 2) [26BEA2E3] (AR v2)
Track 17 accurately ripped (confidence 2) [07892C0F] (AR v2)
Track 18 accurately ripped (confidence 2) [A18FB4BC] (AR v2)
Track 19 accurately ripped (confidence 2) [F8F6152E] (AR v2)
Track 20 accurately ripped (confidence 2) [110E49C1] (AR v2)
Track 21 accurately ripped (confidence 2) [220383D5] (AR v2)
Track 22 accurately ripped (confidence 2) [3025B84F] (AR v2)
All tracks accurately ripped
End of status report
---- CUETools DB Plugin V2.1.3
[CTDB TOCID: QelfMQJv0u2GR_6d1qnWdYXGHVQ-] found, Submit result: QelfMQJv0u2GR_6d1qnWdYXGHVQ- has been uploaded
[1e0ddf5b] (1/1) No match
==== Log checksum 5DFE6475AC813D347759C3CCE052F3F99019045780B65FC1C54754894F106FE4 ====

Содержание индексной карты (.CUE)

CD1

REM GENRE Classical
REM DATE 2006
REM DISCID B50F4F0D
REM COMMENT "ExactAudioCopy v1.0b3"
PERFORMER "Musica Amphion"
TITLE "Music from the Golden Age of Rembrandt, Belder 2006 CD1"
FILE "Musica Amphion - Music from the Golden Age of Rembrandt, Belder 2006 CD1.ape" WAVE
TRACK 01 AUDIO
TITLE "Cornelis SCHUYT Pavaen en gagliarda 10_1"
PERFORMER "Musica Amphion"
FLAGS DCP
INDEX 01 00:00:00
TRACK 02 AUDIO
TITLE "Cornelis SCHUYT Pavaen en gagliarda 10_2"
PERFORMER "Musica Amphion"
ISRC 000000000001
FLAGS DCP
INDEX 00 03:44:40
INDEX 01 03:44:61
TRACK 03 AUDIO
TITLE "Cornelis SCHUYT Canzona 'la Barca'"
PERFORMER "Musica Amphion"
ISRC 000000000002
FLAGS DCP
INDEX 00 04:56:20
INDEX 01 04:56:41
TRACK 04 AUDIO
TITLE "Jan Pieterszoon SWEELINCK Psalm 1"
PERFORMER "Musica Amphion"
ISRC 000000000003
FLAGS DCP
INDEX 00 07:00:56
INDEX 01 07:04:07
TRACK 05 AUDIO
TITLE "Jan Pieterszoon SWEELINCK Hexacord fantasia"
PERFORMER "Musica Amphion"
ISRC 000000000004
FLAGS DCP
INDEX 00 13:24:60
INDEX 01 13:28:47
TRACK 06 AUDIO
TITLE "Jan Pieterszoon SWEELINCK More Palatino"
PERFORMER "Musica Amphion"
ISRC 000000000005
FLAGS DCP
INDEX 00 23:03:67
INDEX 01 23:08:34
TRACK 07 AUDIO
TITLE "Jan Pieterszoon SWEELINCK Pavaen Lachrimae"
PERFORMER "Musica Amphion"
ISRC 000000000006
FLAGS DCP
INDEX 00 26:54:56
INDEX 01 26:55:02
TRACK 08 AUDIO
TITLE "Nicolas VALLET Fortune angloise - Malle Sijmen - Slaep, zoete Slaep"
PERFORMER "Musica Amphion"
ISRC 000000000007
FLAGS DCP
INDEX 00 32:51:07
INDEX 01 32:55:40
TRACK 09 AUDIO
TITLE "Cornelis Thymanszoon PADBRUE Madrigal 'Dat ick betovert ben'"
PERFORMER "Musica Amphion"
ISRC 000000000008
FLAGS DCP
INDEX 00 36:58:40
INDEX 01 37:02:02
TRACK 10 AUDIO
TITLE "Herman HOLLANDERS Antequam comedam suspiro"
PERFORMER "Musica Amphion"
ISRC 000000000009
FLAGS DCP
INDEX 00 41:01:53
INDEX 01 41:03:72
TRACK 11 AUDIO
TITLE "Herman HOLLANDERS Dolor me compellit dicere"
PERFORMER "Musica Amphion"
ISRC 000000000010
FLAGS DCP
INDEX 00 44:17:03
INDEX 01 44:20:40
TRACK 12 AUDIO
TITLE "Herman HOLLANDERS Cum inferni tenebris"
PERFORMER "Musica Amphion"
ISRC 000000000011
FLAGS DCP
INDEX 00 48:30:14
INDEX 01 48:34:48
TRACK 13 AUDIO
TITLE "Pieter CORNET Salve Regina"
PERFORMER "Musica Amphion"
ISRC 000000000012
FLAGS DCP
INDEX 00 54:11:25
INDEX 01 54:14:44

CD2

REM GENRE Classical
REM DATE 2006
REM DISCID 410F9E16
REM COMMENT "ExactAudioCopy v1.0b3"
PERFORMER "Musica Amphion"
TITLE "Music from the Golden Age of Rembrandt, Belder 2006 CD2"
FILE "Musica Amphion - Music from the Golden Age of Rembrandt, Belder 2006 CD2.ape" WAVE
TRACK 01 AUDIO
TITLE "Johan Albert BAN Me veux tu voir mourir (in contest with Boesset)"
PERFORMER "Musica Amphion"
FLAGS DCP
INDEX 01 00:00:00
TRACK 02 AUDIO
TITLE "Jacob van EIJCK Doen Daphne D'over schoone Maegt"
PERFORMER "Musica Amphion"
FLAGS DCP
INDEX 00 01:16:19
INDEX 01 01:19:10
TRACK 03 AUDIO
TITLE "ANONYM Daphne variaties"
PERFORMER "Musica Amphion"
FLAGS DCP
INDEX 00 08:33:17
INDEX 01 08:35:52
TRACK 04 AUDIO
TITLE "Johannes SCHOP Almande"
PERFORMER "Musica Amphion"
FLAGS DCP
INDEX 01 12:48:74
TRACK 05 AUDIO
TITLE "Johannes SCHOP Sarabande op La Suedoise"
PERFORMER "Musica Amphion"
FLAGS DCP
INDEX 01 14:29:65
TRACK 06 AUDIO
TITLE "Johannes SCHOP Brande Mr. Primrose?"
PERFORMER "Musica Amphion"
FLAGS DCP
INDEX 01 15:04:68
TRACK 07 AUDIO
TITLE "Tarquinio MERULA 't Hane en't Henne-gekray"
PERFORMER "Musica Amphion"
FLAGS DCP
INDEX 00 16:09:62
INDEX 01 16:13:63
TRACK 08 AUDIO
TITLE "Bernardon BARLASCA Vijfde Fantasia"
PERFORMER "Musica Amphion"
FLAGS DCP
INDEX 01 18:09:52
TRACK 09 AUDIO
TITLE "Christian ¨HERWICH Concerto "
PERFORMER "Musica Amphion"
FLAGS DCP
INDEX 01 20:31:26
TRACK 10 AUDIO
TITLE "Costantijn HUYGENS Usquequo, Domine (III)"
PERFORMER "Musica Amphion"
FLAGS DCP
INDEX 01 23:10:60
TRACK 11 AUDIO
TITLE "Costantijn HUYGENS Quare tristes es (IX)"
PERFORMER "Musica Amphion"
FLAGS DCP
INDEX 01 26:04:05
TRACK 12 AUDIO
TITLE "Costantijn HUYGENS De profundis (XVII)"
PERFORMER "Musica Amphion"
FLAGS DCP
INDEX 00 28:18:62
INDEX 01 28:22:00
TRACK 13 AUDIO
TITLE "Costantijn HUYGENS Air (XXXV)"
PERFORMER "Musica Amphion"
FLAGS DCP
INDEX 00 32:49:17
INDEX 01 32:51:31
TRACK 14 AUDIO
TITLE "Jan Baptist VERRIJT Quae Habitas In Hortis"
PERFORMER "Musica Amphion"
FLAGS DCP
INDEX 00 34:59:70
INDEX 01 35:01:18
TRACK 15 AUDIO
TITLE "Anthoni van NOORDT Psalm 2"
PERFORMER "Musica Amphion"
FLAGS DCP
INDEX 00 37:29:15
INDEX 01 37:32:20
TRACK 16 AUDIO
TITLE "Sybrandt van NOORDT Sonata 1 in F major for recorder & b.c. - Vivace, Adagio"
PERFORMER "Musica Amphion"
FLAGS DCP
INDEX 00 46:12:24
INDEX 01 46:15:55
TRACK 17 AUDIO
TITLE "Sybrandt van NOORDT Sonata 1 in F major for recorder & b.c. - Allegro"
PERFORMER "Musica Amphion"
FLAGS DCP
INDEX 01 49:06:57
TRACK 18 AUDIO
TITLE "Carel HACQUART Sonata VIII a Quattro for 2 violins, viola, viola da gamba & b..."
PERFORMER "Musica Amphion"
FLAGS DCP
INDEX 00 50:45:63
INDEX 01 50:49:12
TRACK 19 AUDIO
TITLE "Benedictus BUNS Trio sonate VII in F sharp minor/E flat major - Adagio"
PERFORMER "Musica Amphion"
FLAGS DCP
INDEX 00 57:45:72
INDEX 01 57:50:67
TRACK 20 AUDIO
TITLE "Benedictus BUNS Trio sonate VII in F sharp minor/E flat major - Allegro"
PERFORMER "Musica Amphion"
FLAGS DCP
INDEX 01 60:07:72
TRACK 21 AUDIO
TITLE "Benedictus BUNS Trio sonate VII in F sharp minor/E flat major - Adagio"
PERFORMER "Musica Amphion"
FLAGS DCP
INDEX 01 62:05:13
TRACK 22 AUDIO
TITLE "Benedictus BUNS Trio sonate VII in F sharp minor/E flat major - Giga & Adagio"
PERFORMER "Musica Amphion"
FLAGS DCP
INDEX 01 63:52:22



Показать сообщения:    

Текущее время: 03-Дек 22:40

Часовой пояс: UTC + 3


Вы не можете начинать темы
Вы не можете отвечать на сообщения
Вы не можете редактировать свои сообщения
Вы не можете удалять свои сообщения
Вы не можете голосовать в опросах
Вы не можете прикреплять файлы к сообщениям
Вы не можете скачивать файлы