(Classical) Serge Prokofiev plays Prokofiev: Прокофьев - Концерт для фортепиано №3 (Прокофьев/Coppola) & Симфония №5 (Koussevitzky) [Dutton] - 2000, FLAC (image+.cue) lossless


Статистика раздачи [Обновить пиров]
Размер:  267 MB   |    Зарегистрирован:  8 месяцев 23 дня   |    Скачан:  0 раз

Полного источника не было: Никогда

 
   
 
 
 

[Цитировать]

Serge Prokofiev plays Prokofiev
Жанр: Classical
Страна-производитель диска: Germany
Год издания диска: 2000
Издатель (лейбл): Dutton
Номер по каталогу: CDBP 9706
Дата записи: 28.VI.1932 (Концерт) & 6-7.II.1946 (Симфония)
Remastered by: Michael Dutton
Аудиокодек: FLAC
Тип рипа: image+.cue
Битрейт аудио: lossless
Продолжительность: 1:04'55"
Источник: собственный рип
Наличие сканов в содержимом раздачи: да
Треклист:
Концерт для фортепиано с оркестром №3 до мажор, соч.26
1. I. Andante - Allegro
2. II. Theme and variations
3. III. Allegro ma non troppo
Сергей Прокофьев, piano
London Symphony Orchestra
Piero Coppola
Rec.28.VI.1932

Симфония №5 си-бемоль мажор, соч.100
4. I. Andante
5. II. Allegro marcato
6. III. Adagio
7. IV. Allegro giocoso
Boston Symphony Orchestra
Serge Koussevitzky
Rec.6-7.II.1946
-

Лог создания рипа

Exact Audio Copy V1.0 beta 1 from 15. November 2010
EAC extraction logfile from 27. October 2013, 21:00
Prokofiev / plays Prokofiev
Used drive : Optiarc DVD RW AD-7203A Adapter: 4 ID: 1
Read mode : Secure
Utilize accurate stream : Yes
Defeat audio cache : Yes
Make use of C2 pointers : No
Read offset correction : 48
Overread into Lead-In and Lead-Out : No
Fill up missing offset samples with silence : Yes
Delete leading and trailing silent blocks : No
Null samples used in CRC calculations : Yes
Used interface : Native Win32 interface for Win NT & 2000
Used output format : User Defined Encoder
Selected bitrate : 128 kBit/s
Quality : High
Add ID3 tag : No
Command line compressor : C:\Program Files\FLAC\flac.exe
Additional command line options : -T "COMMENT=Ripped by GFox" -8 -V %s
TOC of the extracted CD
Track | Start | Length | Start sector | End sector
---------------------------------------------------------
1 | 0:00.00 | 8:19.37 | 0 | 37461
2 | 8:19.37 | 7:38.00 | 37462 | 71811
3 | 15:57.37 | 8:33.00 | 71812 | 110286
4 | 24:30.37 | 11:23.25 | 110287 | 161536
5 | 35:53.62 | 7:41.50 | 161537 | 196161
6 | 43:35.37 | 11:53.00 | 196162 | 249636
7 | 55:28.37 | 9:27.13 | 249637 | 292174
Range status and errors
Selected range
Filename D:\EAC\Prokofiev - plays Prokofiev.wav
Peak level 82.4 %
Extraction speed 0.4 X
Range quality 99.9 %
Test CRC 9D9C21D0
Copy CRC 9D9C21D0
Copy OK
No errors occurred
AccurateRip summary
Track 1 accurately ripped (confidence 2) [6A2DC4E9]
Track 2 accurately ripped (confidence 2) [CAC261B0]
Track 3 accurately ripped (confidence 2) [7A03448C]
Track 4 accurately ripped (confidence 2) [D1B1C4DD]
Track 5 accurately ripped (confidence 2) [D9497888]
Track 6 accurately ripped (confidence 2) [FAFF4706]
Track 7 accurately ripped (confidence 2) [4ADAC652]
All tracks accurately ripped
End of status report
==== Log checksum 8CB2770E101ABD1AE84CA8F30DD1D729F8E197824BF854CF9ED473FFD20512B7 ====
-Доп. информация: Очередной блестящий ремастеринг от Dutton.-
[teatrix.ru].t17788.torrent 
Торрент: Зарегистрирован [ 2016-03-17 00:50 ] · E8FB81C9AA4C213ADC8796B8F8E4586A20A81E09

Скачать .torrent

Скачать

11 KB

Статус: проверено
Скачан: 0 раз
Размер: 267 MB
terms.php



Быстрый ответ

Имя:

      
Для отправки сообщений необходимо включить JavaScript
Показать сообщения:    

Текущее время: 09-Дек 16:34

Часовой пояс: UTC + 3


Вы можете начинать темы
Вы можете отвечать на сообщения
Вы не можете редактировать свои сообщения
Вы не можете удалять свои сообщения
Вы не можете голосовать в опросах
Вы не можете прикреплять файлы к сообщениям
Вы можете скачивать файлы