День кино. Праздничный концерт: Николай Черкасов, Николай Рыбников, Вячеслав Тихонов, Аркадий Райкин и др. (Главная редакция кинопрограмм ЦТ) [1963, концертная программа, кинематограф, DVB]


Статистика раздачи [Обновить пиров]
Размер:  1.8 GB   |    Зарегистрирован:  8 месяцев 21 день   |    Скачан:  0 раз

Полного источника не было: Никогда

 
   
 
 
 

[Цитировать]

День кино
Праздничный концерт- Год выпуска: 1963
Страна: СССР
Жанр: концертная программа, кинематограф
Продолжительность: 00:50:36
Перевод: Не требуется
Русские субтитры: нет
Режиссер: Главная редакция кинопрограмм ЦТВ ролях: Нонна Мордюкова, Николай Черкасов, Николай Рыбников, Михаил Кузнецов, Лидия Смирнова, Клара Лучко, Геннадий Дудник, Вячеслав Тихонов, Владимир Ивашов, Владимир Андреев, Аркадий Райкин, Антонина Максимова, Алла Ларионова
Описание: Концерт с участием популярных киноактеров, и посвященный "Дню кино" прошел в 1963 году неспроста. Он был приурочен к проходившему летом этого года III Московскому международному кинофестивалю.
Ведущий Владимир Андреев пригласил на сцену Аллу Ларионову, Нонну Мордюкову, Лидию Смирнову, Клару Лучко, Антонину Максимову, а так же Михаила Кузнецова, который сказал: «Сегодня у нас праздник кино, а как бы хотелось, чтобы каждая новая кинокартина, которая появляется на киноэкране, становилась бы праздником». Его правильные слова перемежались выступлением очаровательных молодых актрис, которые очень бегло говорили на разных языках, включая японский. Ведь кино, помимо всего прочего – это еще и немного обман.
Замечательный актер Николай Черкасов "шагнув с экрана", явился в образе профессора Полежаева из фильма "Депутат Балтики". Был показан отрывок из фильма "Звёзды встречаются в Москве" режиссёров Василия Катаняна и Владимира Бычкова о Первом Московском международном кинофестивале, проходившем в августе 1959 года.
Пародисты были уже тогда. Геннадий Дудник спародировал Бориса Андреева, Михаила Яншина, Михаила Жарова и Петра Олейникова. Сверхпопулярный Николай Рыбников исполнил свои коронные песни "Когда весна придет" и "Не кочегары мы, не плотники". Прозвучали "Майские звезды" в исполнении Вячеслава Тихонова. Аркадий Райкин выступил в роли кинокритика, кинорежиссера, а так же в роли Чарли Чаплина, он танцевал и пел. И в заключении юный Владимир Ивашов появился в образе Алеши Скворцова из фильма "Баллада о солдате". (анонс канала "Ностальгия")
Доп. информация: Запись со спутника (телеканал "Ностальгия").
Сэмпл: http://multi-up.com/917857
качество: DVB
формат: MPEG-PS (См. при проблемах с просмотром видео)
Видео: MPEG Video 2, 720x576@768x576 (4:3), 25 fps, ~4794 kbps avg, 0.462 bit/pixel
Аудио: 48 kHz, MPEG Audio 2, 2 ch, ~192.00 kbps avg

MediaInfo

Полное имя                               : H:\My Torrents\[apreder]Day_of_the_Cinema(1963)DVB.mpg
Формат : MPEG-PS
Размер файла : 1,80 Гбайт
Продолжительность : 50 м.
Режим общего битрейта : Переменный
Общий поток : 5088 Кбит/сек
Видео
Идентификатор : 224 (0xE0)
Формат : MPEG Video
Версия формата : Version 2
Профиль формата : Main@Main
Параметр BVOP формата : Да
Параметр матрицы формата : Выборочная
Параметр GOP формата : Variable
Продолжительность : 50 м.
Вид битрейта : Переменный
Битрейт : 4794 Кбит/сек
Ширина : 720 пикселей
Высота : 576 пикселей
Соотношение сторон : 4:3
Частота кадров : 25,000 кадров/сек
Стандарт вещания : PAL
Цветовое пространство : YUV
Субдискретизация насыщенности : 4:2:0
Битовая глубина : 8 бит
Тип развёртки : Чересстрочная
Порядок развёртки : Верхнее поле первое
Метод сжатия : С потерями
Бит/(Пиксели*Кадры) : 0.462
Временной код первого кадра : 00:00:00:00
Оригинал временного кода : Group of pictures header
Размер потока : 1,70 Гбайт (94%)
Аудио
Идентификатор : 192 (0xC0)
Формат : MPEG Audio
Версия формата : Version 1
Профиль формата : Layer 2
Продолжительность : 50 м.
Вид битрейта : Постоянный
Битрейт : 192 Кбит/сек
Каналы : 2 канала
Частота : 48,0 КГц
Метод сжатия : С потерями
Размер потока : 69,5 Мбайт (4%)

Скриншоты


Резервные скриншоты


-1'030/1'012√
[teatrix.ru].t17790.torrent 
Торрент: Зарегистрирован [ 2016-03-17 00:50 ] · BD0A3AA9FBBCC12A4B957648C336677BA5A26CCF

Скачать .torrent

Скачать

18 KB

Статус: проверено
Скачан: 0 раз
Размер: 1.8 GB
terms.php



Показать сообщения:    

Текущее время: 07-Дек 11:40

Часовой пояс: UTC + 3


Вы не можете начинать темы
Вы не можете отвечать на сообщения
Вы не можете редактировать свои сообщения
Вы не можете удалять свои сообщения
Вы не можете голосовать в опросах
Вы не можете прикреплять файлы к сообщениям
Вы можете скачивать файлы