(Classical) Edouard Lalo, Camille Saint-Saens - Cello Concertos - Pieter Wispelwey, Flanders Symphony Orchestra, Seikyo Kim - 2013, FLAC (image+.cue) lossless


Статистика раздачи [Обновить пиров]
Размер:  295 MB   |    Зарегистрирован:  8 месяцев 19 дней   |    Скачан:  0 раз

Полного источника не было: Никогда

 
   
 
 
 

[Цитировать]

Édouard Lalo, Camille Saint-Saëns - Cello Concertos - Pieter Wispelwey, Flanders Symphony Orchestra, Seikyo Kim
Жанр: Classical
Год издания диска: 2013
Издатель (лейбл): Onyx Classics
Номер по каталогу: ONYX 4107
Дата записи: 2012
Аудиокодек: FLAC
Тип рипа: image+.cue
Битрейт аудио: lossless
Продолжительность: 63:32
Источник: собственный рип
Наличие сканов в содержимом раздачи: да
Треклист:
Édouard Lalo (1823-1892)
[1]-[3] Cello Concerto in D minor
Hector Berlioz (1803-1869)
[4] Romèo et Juliette - Love Scene
Camille Saint-Saëns (1835-1921)
[5]-[7] Cello Concerto No.2 in D minor, Op. 119
Исполнители:
Pieter Wispelwey cello
Flanders Symphony Orchestra
Seikyo Kim
conductor

Лог создания рипа

Exact Audio Copy V1.0 beta 3 from 29. August 2011
EAC extraction logfile from 3. October 2013, 14:20
Pieter Wispelwey, Flanders Symphony Orchestra, Seikyo Kim / Lalo, Saint-Saens - Cello Concertos
Used drive : HL-DT-STDVDRRW GWA-4164B Adapter: 5 ID: 0
Read mode : Secure
Utilize accurate stream : Yes
Defeat audio cache : Yes
Make use of C2 pointers : No
Read offset correction : 102
Overread into Lead-In and Lead-Out : No
Fill up missing offset samples with silence : Yes
Delete leading and trailing silent blocks : No
Null samples used in CRC calculations : Yes
Used interface : Native Win32 interface for Win NT & 2000
Used output format : User Defined Encoder
Selected bitrate : 896 kBit/s
Quality : High
Add ID3 tag : No
Command line compressor : C:\Program Files\Exact Audio Copy\FLAC\FLAC.EXE
Additional command line options : -V -8 %source%
TOC of the extracted CD
Track | Start | Length | Start sector | End sector
---------------------------------------------------------
1 | 0:00.00 | 13:25.13 | 0 | 60387
2 | 13:25.13 | 6:00.57 | 60388 | 87444
3 | 19:25.70 | 7:34.59 | 87445 | 121553
4 | 27:00.54 | 16:55.21 | 121554 | 197699
5 | 43:56.00 | 3:40.16 | 197700 | 214215
6 | 47:36.16 | 9:31.55 | 214216 | 257095
7 | 57:07.71 | 6:24.26 | 257096 | 285921
Range status and errors
Selected range
Filename D:\temp\Music\Lalo, Saint-Saens - Cello Concertos (Wispelwey, Flanders Symphony Orchestra, Kim)\Lalo, Saint-Saens - Cello Concertos.wav
Peak level 99.2 %
Extraction speed 2.7 X
Range quality 100.0 %
Test CRC E727E7A5
Copy CRC E727E7A5
Copy OK
No errors occurred
AccurateRip summary
Track 1 not present in database
Track 2 not present in database
Track 3 not present in database
Track 4 not present in database
Track 5 not present in database
Track 6 not present in database
Track 7 not present in database
None of the tracks are present in the AccurateRip database
End of status report
==== Log checksum 20931BB97D0CA3FD1A7EDE5A7C4D20080B1E20EDE3DCF98D2AEE46291DD3CCFE ====
[teatrix.ru].t17792.torrent 
Торрент: Зарегистрирован [ 2016-03-17 00:50 ] · 5E19C6718AADDB4B11EEC5D5B7837EC5476332AD

Скачать .torrent

Скачать

24 KB

Статус: проверено
Скачан: 0 раз
Размер: 295 MB
terms.php



Быстрый ответ

Имя:

      
Для отправки сообщений необходимо включить JavaScript
Показать сообщения:    

Текущее время: 05-Дек 03:26

Часовой пояс: UTC + 3


Вы можете начинать темы
Вы можете отвечать на сообщения
Вы не можете редактировать свои сообщения
Вы не можете удалять свои сообщения
Вы не можете голосовать в опросах
Вы не можете прикреплять файлы к сообщениям
Вы можете скачивать файлы