О Бунюэле / Кстати, о Бунюэле / A proposito de Bunuel (Хосе Луис Лопес-Линарес, Хавьер Риойо / Jose Luis Lopez-Linares, Javier Rioyo) [2000, документальный, кинематограф, DVDRip]


Статистика раздачи [Обновить пиров]
Размер:  700 MB   |    Зарегистрирован:  8 месяцев 23 дня   |    Скачан:  0 раз

Полного источника не было: Никогда

 
   
 
 
 

[Цитировать]

О Бунюэле / Кстати, о Бунюэле / A proposito de Bunuel
Год выпуска: 2000
Страна: Испания, Мексика
Жанр: документальный, кинематограф
Продолжительность: 01:39:23
Перевод: cубтитры (dicembre)
Русские субтитры: есть
Режиссер: Хосе Луис Лопес-Линарес, Хавьер Риойо / Jose Luis Lopez-Linares, Javier Rioyo
Описание: Родственники, друзья, коллеги, актеры рассказывают о Бунюэле. Использованы фрагменты из его книги, семейные и любительские съемки. Рассказ о жизни сопровождается кадрами из фильмов, что позволяет лучше понять происхождение некоторых бунюэлевских образов. Для авторов фильма Бунюэль - не экспонат из музея кино, а живой и яркий человек, о котором с большой любовью говорят люди, знавшие его. "Он показал нам, что мы не должны бояться жизни и жизненных катастроф". (Мишель Пикколи)
Сэмпл: http://multi-up.com/918798
качество: DVDRip
формат: AVI
Видео: MPEG-4 Visual (DivX 5), 640x384 (1,667), 29,97 fps, 839 kbps, 0.114 bit/pixel
Аудио: MPEG Audio, 128 Kbps, 2 ch, 48 KHz
Формат субтитров: softsub (SRT)

MediaInfo

Общее
Полное имя : D:\TRANSLATE\A Proposito De Bunuel 2000\A Proposito De Bunuel 2000.ass
Размер файла : 185 Кбайт
Общее
Полное имя : D:\TRANSLATE\A Proposito De Bunuel 2000\A Proposito De Bunuel 2000.avi
Формат : AVI
Формат/Информация : Audio Video Interleave
Размер файла : 700 Мбайт
Продолжительность : 1 ч. 39 м.
Режим общего битрейта : Переменный
Общий поток : 984 Кбит/сек
Программа кодирования : VirtualDubMod 1.5.10.1 (build 2439/release)
Библиотека кодирования : VirtualDubMod build 2439/release
Видео
Идентификатор : 0
Формат : MPEG-4 Visual
Параметр BVOP формата : 1
Параметр QPel формата : Нет
Параметр GMC формата : 2 точки перехода
Параметр матрицы формата : Default (H.263)
Режим смешивания : Сжатый битовый поток
Идентификатор кодека : DX50
Идентификатор кодека/Подсказка : DivX 5
Продолжительность : 1 ч. 39 м.
Битрейт : 839 Кбит/сек
Ширина : 640 пикселей
Высота : 384 пикселя
Соотношение сторон : 1,667
Частота кадров : 29,970 кадров/сек
Цветовое пространство : YUV
Субдискретизация насыщенности : 4:2:0
Битовая глубина : 8 бит
Тип развёртки : Прогрессивная
Метод сжатия : С потерями
Бит/(Пиксели*Кадры) : 0.114
Размер потока : 596 Мбайт (85%)
Библиотека кодирования : DivX 5.1.1 (Maupiti) (UTC 2003-11-19)
Аудио
Идентификатор : 1
Формат : MPEG Audio
Версия формата : Version 1
Профиль формата : Layer 3
Режим : Joint stereo
Расширение режима : MS Stereo
Идентификатор кодека : 55
Идентификатор кодека/Подсказка : MP3
Продолжительность : 1 ч. 39 м.
Вид битрейта : Переменный
Битрейт : 128 Кбит/сек
Каналы : 2 канала
Частота : 48,0 КГц
Метод сжатия : С потерями
Размер потока : 93,6 Мбайт (13%)
Выравнивание : Соединение по промежуткам
Продолжительность промежутка : 24 мс. (0,72 видеокадр)
Время предзагрузки промежутка : 140 мс.
Библиотека кодирования : LAME3.90.
Настройки программы : -m j -V 4 -q 2 -lowpass 17.6 --abr 128

Пример субтитров

1
00:00:41,320 --> 00:00:46,000
Карлос Фуэнтес (писатель и друг)
У Бунюэля я научился ценить молчание.
2
00:00:46,080 --> 00:00:50,200
Иногда мы могли просидеть
10 минут в полной тишине,
3
00:00:50,270 --> 00:00:52,780
смотря друг на друга или выпивая,
4
00:00:52,860 --> 00:00:56,280
без необходимости разговаривать.
И я понял, что это высшая степень дружбы.
5
00:00:56,464 --> 00:01:00,180
О БУНЮЭЛЕ
6
00:01:00,360 --> 00:01:04,520
Клаудио Айзек (друг)
У него был такой нос, будто
сломанный, как у боксера.
7
00:01:04,690 --> 00:01:08,130
Взгляд ассиметричный
8
00:01:08,300 --> 00:01:12,430
и пугающий, невероятно
сконцентрированный.
9
00:01:12,600 --> 00:01:15,160
Он очень любил шутить,
10
00:01:15,340 --> 00:01:17,630
но с очень серьезным
выражением лица.
11
00:01:17,740 --> 00:01:19,630
Это сбивало с толку.
12
00:01:22,910 --> 00:01:26,740
Мишель Пикколи (актер)
Он показал нам, что мы
13
00:01:26,840 --> 00:01:30,850
не должны бояться жизни
и жизненных катастроф.
14
00:01:31,150 --> 00:01:33,140
Для него эти катастрофы
15
00:01:33,320 --> 00:01:36,620
были ложью, политической ложью -
16
00:01:36,790 --> 00:01:39,620
фашизм, франкизм
17
00:01:39,790 --> 00:01:41,640
и Папа Римский.
18
00:01:45,230 --> 00:01:48,230
Анхела Молина (актриса)
Он владел искусством провокации,
19
00:01:48,400 --> 00:01:51,630
но делал это очень жизнелюбиво.
20
00:01:51,710 --> 00:01:54,780
Этого он и добивался:
взбудоражить людей,
21
00:01:54,860 --> 00:01:58,470
заставить их думать и задавать вопросы,
получая при этом удовольствие.

Скриншоты

[teatrix.ru].t17795.torrent 
Торрент: Зарегистрирован [ 2016-03-17 00:50 ] · 56F9DB8D6383A79D198F17DD2BCD7C9F61BCC380

Скачать .torrent

Скачать

14 KB

Статус: проверено
Скачан: 0 раз
Размер: 700 MB
terms.php



Показать сообщения:    

Текущее время: 09-Дек 16:37

Часовой пояс: UTC + 3


Вы не можете начинать темы
Вы не можете отвечать на сообщения
Вы не можете редактировать свои сообщения
Вы не можете удалять свои сообщения
Вы не можете голосовать в опросах
Вы не можете прикреплять файлы к сообщениям
Вы можете скачивать файлы