(Classical / Viola) Leonardo Leo - The 6 Cello Concertos (Josephine Knight) - 2006, FLAC (image+.cue) lossless


Статистика раздачи [Обновить пиров]
Размер:  424 MB   |    Зарегистрирован:  8 месяцев 19 дней   |    Скачан:  0 раз

Полного источника не было: Никогда

 
   
 
 
 

[Цитировать]

Leonardo Leo - The 6 Cello Concertos
Жанр: Classical / Viola
Страна-производитель диска: England
Год издания диска: 2006
Издатель (лейбл): ASV
Дата записи: 2003
Аудиокодек: FLAC
Тип рипа: image+.cue
Битрейт аудио: lossless
Продолжительность: 00:43:42 + 00:41:53
Источник: odeonmusic
Наличие сканов в содержимом раздачи: да
Треклист:
Leonardo Leo (1694-1744)
CD 1:
Concerto No.1 for Cello, Strings and Orchestra in A major
Concerto No.2 for Cello, Strings and Orchestra in D major
Concerto No.5 for Cello, Strings and Orchestra in F minor
CD 2:
Concerto No.3 for Cello, Strings and Orchestra in D minor
Sinfonia Concertata (Concerto No.6) in C minor
Concerto No.4 for Cello, Strings and Orchestra in A major
Исполнители:
Josephine Knight - cello
English Chamber Orchestra

Лог создания рипа

Exact Audio Copy V1.0 beta 3 from 29. August 2011
EAC extraction logfile from 22. September 2013, 9:23
Josephine Knight / Leonardo Leo -The 6 Cello Concertos - Josephine Knight (Disc 1)
Used drive : TSSTcorpCDDVDW SH-222BB Adapter: 2 ID: 1
Read mode : Secure
Utilize accurate stream : Yes
Defeat audio cache : Yes
Make use of C2 pointers : No
Read offset correction : 6
Overread into Lead-In and Lead-Out : No
Fill up missing offset samples with silence : Yes
Delete leading and trailing silent blocks : No
Null samples used in CRC calculations : Yes
Used interface : Native Win32 interface for Win NT & 2000
Used output format : User Defined Encoder
Selected bitrate : 1024 kBit/s
Quality : High
Add ID3 tag : No
Command line compressor : C:\Program Files\Exact Audio Copy\Flac\flac.exe
Additional command line options : -8 -V -T "TITLE=%title%" -T "ARTIST=%artist%" -T "ALBUMARTIST=%albumartist%" -T "ALBUM=%albumtitle%" -T "DATE=%year%" -T "TRACKNUMBER=%tracknr%" -T "TRACKTOTAL=%numtracks%" -T "GENRE=%genre%" -T "COMMENT=%comment%" -T "PERFORMER=%albuminterpret%" -T "COMPOSER=%composer%" %source% -o %dest%
TOC of the extracted CD
Track | Start | Length | Start sector | End sector
---------------------------------------------------------
1 | 0:00.00 | 3:40.57 | 0 | 16556
2 | 3:40.57 | 2:46.74 | 16557 | 29080
3 | 6:27.56 | 3:38.18 | 29081 | 45448
4 | 10:05.74 | 4:08.00 | 45449 | 64048
5 | 14:13.74 | 3:57.55 | 64049 | 81878
6 | 18:11.54 | 2:41.18 | 81879 | 93971
7 | 20:52.72 | 4:41.44 | 93972 | 115090
8 | 25:34.41 | 2:05.58 | 115091 | 124523
9 | 27:40.24 | 2:10.68 | 124524 | 134341
10 | 29:51.17 | 4:00.11 | 134342 | 152352
11 | 33:51.28 | 3:02.09 | 152353 | 166011
12 | 36:53.37 | 4:29.68 | 166012 | 186254
13 | 41:23.30 | 2:16.59 | 186255 | 196513
Range status and errors
Selected range
Filename E:\4000\[4523] Leonardo Leo -The 6 Cello Concertos - Josephine Knight\cd1\Leonardo Leo -The 6 Cello Concertos - Josephine Knight (Disc 1).wav
Peak level 86.8 %
Extraction speed 6.5 X
Range quality 100.0 %
Test CRC 04E77316
Copy CRC 04E77316
Copy OK
No errors occurred
AccurateRip summary
Track 1 accurately ripped (confidence 3) [25FEC2DA] (AR v1)
Track 2 accurately ripped (confidence 3) [EE102555] (AR v1)
Track 3 accurately ripped (confidence 3) [C95D7453] (AR v1)
Track 4 accurately ripped (confidence 3) [B5836784] (AR v1)
Track 5 accurately ripped (confidence 3) [3F2C0E7A] (AR v1)
Track 6 accurately ripped (confidence 3) [1E7EA9C0] (AR v1)
Track 7 accurately ripped (confidence 3) [B13DB49C] (AR v1)
Track 8 accurately ripped (confidence 3) [8231ABF8] (AR v1)
Track 9 accurately ripped (confidence 3) [6B0799E1] (AR v1)
Track 10 accurately ripped (confidence 3) [AA81CF5F] (AR v1)
Track 11 accurately ripped (confidence 3) [9DB6F7DD] (AR v1)
Track 12 accurately ripped (confidence 3) [BC9EF5DB] (AR v1)
Track 13 accurately ripped (confidence 3) [97562991] (AR v1)
All tracks accurately ripped
End of status report
Exact Audio Copy V1.0 beta 3 from 29. August 2011
EAC extraction logfile from 22. September 2013, 9:38
Josephine Knight / Leonardo Leo -The 6 Cello Concertos - Josephine Knight (Disc 2)
Used drive : TSSTcorpCDDVDW SH-222BB Adapter: 2 ID: 1
Read mode : Secure
Utilize accurate stream : Yes
Defeat audio cache : Yes
Make use of C2 pointers : No
Read offset correction : 6
Overread into Lead-In and Lead-Out : No
Fill up missing offset samples with silence : Yes
Delete leading and trailing silent blocks : No
Null samples used in CRC calculations : Yes
Used interface : Native Win32 interface for Win NT & 2000
Used output format : User Defined Encoder
Selected bitrate : 1024 kBit/s
Quality : High
Add ID3 tag : No
Command line compressor : C:\Program Files\Exact Audio Copy\Flac\flac.exe
Additional command line options : -8 -V -T "TITLE=%title%" -T "ARTIST=%artist%" -T "ALBUMARTIST=%albumartist%" -T "ALBUM=%albumtitle%" -T "DATE=%year%" -T "TRACKNUMBER=%tracknr%" -T "TRACKTOTAL=%numtracks%" -T "GENRE=%genre%" -T "COMMENT=%comment%" -T "PERFORMER=%albuminterpret%" -T "COMPOSER=%composer%" %source% -o %dest%
TOC of the extracted CD
Track | Start | Length | Start sector | End sector
---------------------------------------------------------
1 | 0:00.00 | 3:42.24 | 0 | 16673
2 | 3:42.24 | 3:12.67 | 16674 | 31140
3 | 6:55.16 | 4:20.53 | 31141 | 50693
4 | 11:15.69 | 2:54.45 | 50694 | 63788
5 | 14:10.39 | 2:54.50 | 63789 | 76888
6 | 17:05.14 | 1:41.73 | 76889 | 84536
7 | 18:47.12 | 4:31.20 | 84537 | 104881
8 | 23:18.32 | 1:33.36 | 104882 | 111892
9 | 24:51.68 | 3:42.18 | 111893 | 128560
10 | 28:34.11 | 4:35.37 | 128561 | 149222
11 | 33:09.48 | 4:58.50 | 149223 | 171622
12 | 38:08.23 | 3:42.71 | 171623 | 188343
Range status and errors
Selected range
Filename E:\4000\[4523] Leonardo Leo -The 6 Cello Concertos - Josephine Knight\cd1\Leonardo Leo -The 6 Cello Concertos - Josephine Knight (Disc 2).wav
Peak level 100.0 %
Extraction speed 6.3 X
Range quality 99.9 %
Test CRC D859F6F9
Copy CRC D859F6F9
Copy OK
No errors occurred
AccurateRip summary
Track 1 accurately ripped (confidence 2) [88D1CD6D] (AR v1)
Track 2 accurately ripped (confidence 2) [5EF67174] (AR v1)
Track 3 accurately ripped (confidence 2) [DEC25764] (AR v1)
Track 4 accurately ripped (confidence 2) [FA4E401D] (AR v1)
Track 5 accurately ripped (confidence 2) [EE714126] (AR v1)
Track 6 accurately ripped (confidence 2) [27EF1BF7] (AR v1)
Track 7 accurately ripped (confidence 2) [DB1A7CF4] (AR v1)
Track 8 accurately ripped (confidence 2) [7BBD78F9] (AR v1)
Track 9 accurately ripped (confidence 2) [27BB4182] (AR v1)
Track 10 accurately ripped (confidence 2) [CF70AF27] (AR v1)
Track 11 accurately ripped (confidence 2) [EF2F860F] (AR v1)
Track 12 accurately ripped (confidence 2) [7A8D7B75] (AR v1)
All tracks accurately ripped
End of status report

Содержание индексной карты (.CUE)

REM GENRE Classical
REM DATE 2006
REM DISCID AB0A3C0D
REM COMMENT "ExactAudioCopy v1.0b3"
PERFORMER "Josephine Knight"
TITLE "Leonardo Leo -The 6 Cello Concertos - Josephine Knight (Disc 1)"
FILE "Leonardo Leo -The 6 Cello Concertos - Josephine Knight (Disc 1).flac" WAVE
TRACK 01 AUDIO
TITLE "Cello Concerto in A major, L. 20: 1. Andantino grazioso"
PERFORMER "English Chamber Orchestra & Josephine Knight"
INDEX 01 00:00:00
TRACK 02 AUDIO
TITLE "Cello Concerto in A major, L. 20: 2. Allegro"
PERFORMER "English Chamber Orchestra & Josephine Knight"
INDEX 01 03:40:57
TRACK 03 AUDIO
TITLE "Cello Concerto in A major, L. 20: 3. Larghetto a mezza voce"
PERFORMER "English Chamber Orchestra & Josephine Knight"
INDEX 01 06:27:56
TRACK 04 AUDIO
TITLE "Cello Concerto in A major, L. 20: 4. Allegro"
PERFORMER "English Chamber Orchestra & Josephine Knight"
INDEX 01 10:05:74
TRACK 05 AUDIO
TITLE "Cello Concerto in D major, L. 10: 1. Andantino grazioso"
PERFORMER "English Chamber Orchestra & Josephine Knight"
INDEX 00 14:09:70
INDEX 01 14:13:74
TRACK 06 AUDIO
TITLE "Cello Concerto in D major, L. 10: 2. Con bravura"
PERFORMER "English Chamber Orchestra & Josephine Knight"
INDEX 00 18:11:06
INDEX 01 18:11:54
TRACK 07 AUDIO
TITLE "Cello Concerto in D major, L. 10: 3. Larghetto un poco mosso"
PERFORMER "English Chamber Orchestra & Josephine Knight"
INDEX 01 20:52:72
TRACK 08 AUDIO
TITLE "Cello Concerto in D major, L. 10: 4. Fuga"
PERFORMER "English Chamber Orchestra & Josephine Knight"
INDEX 01 25:34:41
TRACK 09 AUDIO
TITLE "Cello Concerto in D major, L. 10: 5. Allegro di molto"
PERFORMER "English Chamber Orchestra & Josephine Knight"
INDEX 01 27:40:24
TRACK 10 AUDIO
TITLE "Cello Concerto in F minor, L. 40: 1. Andante grazioso"
PERFORMER "English Chamber Orchestra & Josephine Knight"
INDEX 01 29:51:17
TRACK 11 AUDIO
TITLE "Cello Concerto in F minor, L. 40: 2. Allegro"
PERFORMER "English Chamber Orchestra & Josephine Knight"
INDEX 01 33:51:28
TRACK 12 AUDIO
TITLE "Cello Concerto in F minor, L. 40: 3. Largo e gustoso"
PERFORMER "English Chamber Orchestra & Josephine Knight"
INDEX 01 36:53:37
TRACK 13 AUDIO
TITLE "Cello Concerto in F minor, L. 40: 4. Allegro"
PERFORMER "English Chamber Orchestra & Josephine Knight"
INDEX 01 41:23:30
REM GENRE Concerto
REM DATE 2006
REM DISCID 9609CF0C
REM COMMENT "ExactAudioCopy v1.0b3"
PERFORMER "Josephine Knight"
TITLE "Leonardo Leo -The 6 Cello Concertos - Josephine Knight (Disc 2)"
FILE "Leonardo Leo -The 6 Cello Concertos - Josephine Knight (Disc 2).flac" WAVE
TRACK 01 AUDIO
TITLE "Cello Concerto in D minor (from 6 Concerti per violoncello), L. 60- 1. Andant..."
PERFORMER "English Chamber Orchestra & English Chamber Orchestra"
INDEX 01 00:00:00
TRACK 02 AUDIO
TITLE "Cello Concerto in D minor (from 6 Concerti per violoncello), L. 60- 2. Col Sp..."
PERFORMER "English Chamber Orchestra & English Chamber Orchestra"
INDEX 00 03:41:72
INDEX 01 03:42:24
TRACK 03 AUDIO
TITLE "Cello Concerto in D minor (from 6 Concerti per violoncello), L. 60- 3. Amoroso"
PERFORMER "English Chamber Orchestra & English Chamber Orchestra"
INDEX 01 06:55:16
TRACK 04 AUDIO
TITLE "Cello Concerto in D minor (from 6 Concerti per violoncello), L. 60- 4. Allegro"
PERFORMER "English Chamber Orchestra & English Chamber Orchestra"
INDEX 01 11:15:69
TRACK 05 AUDIO
TITLE "Sinfonia Concertata for cello & strings in C minor- 1. Andante grazioso"
PERFORMER "English Chamber Orchestra & English Chamber Orchestra"
INDEX 00 14:08:43
INDEX 01 14:10:39
TRACK 06 AUDIO
TITLE "Sinfonia Concertata for cello & strings in C minor- 2. Molto Presto"
PERFORMER "English Chamber Orchestra & English Chamber Orchestra"
INDEX 01 17:05:14
TRACK 07 AUDIO
TITLE "Sinfonia Concertata for cello & strings in C minor- 3. Larghetto"
PERFORMER "English Chamber Orchestra & English Chamber Orchestra"
INDEX 01 18:47:12
TRACK 08 AUDIO
TITLE "Sinfonia Concertata for cello & strings in C minor- 4. Allegro"
PERFORMER "English Chamber Orchestra & English Chamber Orchestra"
INDEX 01 23:18:32
TRACK 09 AUDIO
TITLE "Cello Concerto in A major, L. 50- 1. Andante piacevole"
PERFORMER "English Chamber Orchestra & English Chamber Orchestra"
INDEX 01 24:51:68
TRACK 10 AUDIO
TITLE "Cello Concerto in A major, L. 50- 2. Allegro"
PERFORMER "English Chamber Orchestra & English Chamber Orchestra"
INDEX 01 28:34:11
TRACK 11 AUDIO
TITLE "Cello Concerto in A major, L. 50- 3. Largo e gustoso"
PERFORMER "English Chamber Orchestra & English Chamber Orchestra"
INDEX 01 33:09:48
TRACK 12 AUDIO
TITLE "Cello Concerto in A major, L. 50- 4. Allegro"
PERFORMER "English Chamber Orchestra & English Chamber Orchestra"
INDEX 01 38:08:23

Лог проверки качества

Started at: ïÿòíèöà, 01. 11. 2013. - 10:49.12
1 file found
1 -===- H:\MUSIC\Not Listened Music\#ORCHESTRAL\Leonardo Leo -The 6 Cello Concertos\cd1\Leonardo Leo -The 6 Cello Concertos - Josephine Knight (Disc 1).flac
Extracted successfully
Conclusion: this track is CDDA with probability 100%
Tempfile successfully deleted.
Finished at: ïÿòíèöà, 01. 11. 2013. - 10:50.52 (operation time: 0:01.40)
Started at: ïÿòíèöà, 01. 11. 2013. - 10:51.50
1 file found
1 -===- H:\MUSIC\Not Listened Music\#ORCHESTRAL\Leonardo Leo -The 6 Cello Concertos\cd2\Leonardo Leo -The 6 Cello Concertos - Josephine Knight (Disc 2).flac
Extracted successfully
Conclusion: this track is CDDA with probability 86%
Tempfile successfully deleted.
Finished at: ïÿòíèöà, 01. 11. 2013. - 10:53.28 (operation time: 0:01.38)
Если кому интересно: Мои любимые альбомы
[teatrix.ru].t17796.torrent 
Торрент: Зарегистрирован [ 2016-03-17 00:50 ] · DE8BA07E3A162F95D74847B0C4C0FA1FC41D8C2F

Скачать .torrent

Скачать

136 KB

Статус: проверено
Скачан: 0 раз
Размер: 424 MB
terms.php



Быстрый ответ

Имя:

      
Для отправки сообщений необходимо включить JavaScript
Показать сообщения:    

Текущее время: 05-Дек 03:26

Часовой пояс: UTC + 3


Вы можете начинать темы
Вы можете отвечать на сообщения
Вы не можете редактировать свои сообщения
Вы не можете удалять свои сообщения
Вы не можете голосовать в опросах
Вы не можете прикреплять файлы к сообщениям
Вы можете скачивать файлы