(Classical, Baroque) Bella Napoli: Francesco Mancini, Alessandro & Domenico Scarlatti, Giuseppe Porsile, Nicola Porpora - Baccano - 2011, FLAC (image+.cue) lossless


 

[Цитировать]

Bella Napoli: Francesco Mancini, Alessandro & Domenico Scarlatti, Giuseppe Porsile, Nicola Porpora - Baccano
Жанр: Classical, Baroque
Страна-производитель диска: Finland
Год издания диска: 2011
Издатель (лейбл): Alba Records
Номер по каталогу: ABCD 315
Дата записи: 2008
Аудиокодек: FLAC
Тип рипа: image+.cue
Битрейт аудио: lossless
Продолжительность: 64:57
Источник: собственный рип
Наличие сканов в содержимом раздачи: да
Треклист:
[1]-[4] Francesco Mancini (1672-1737): Sonata IV in A Minor for Recorder and Basso Continuo
[5]-[8] Domenico Scarlatti (1685-1757): No, non fuggire o Nice
Cantata for Soprano and Basso Continuo
[9]-[12] Domenico Scarlatti: Sonata K91 in G Major for Violin and Basso Continuo
[13]-[16] Giuseppe Porsile (1680-1750): E già tre volte
Cantata for Soprano, Recorder and Basso Continuo
[17]-[20] Nicola Porpora (1686-1768): Sonata in F Major for Cello and Basso Continuo
[21]-[28] Alessandro Scarlatti (1660-1725): Quella pace gradita
Cantata for Soprano, Violin, Recorder, Cello and Basso Continuo
Исполнители:
Baccano
Tuuli Lindeberg soprano
Hanna Haapamäki recorder
Mervi Kinnarinen Baroque violin
Jussi Seppänen Baroque cello
Eero Palviainen lute & Baroque guitar
Markku Mäkinen harpsichord

Лог создания рипа

Exact Audio Copy V1.0 beta 3 from 29. August 2011
EAC extraction logfile from 5. August 2013, 15:53
Baccano / Bella Napoli
Used drive : HL-DT-STDVDRRW GWA-4164B Adapter: 5 ID: 0
Read mode : Secure
Utilize accurate stream : Yes
Defeat audio cache : Yes
Make use of C2 pointers : No
Read offset correction : 102
Overread into Lead-In and Lead-Out : No
Fill up missing offset samples with silence : Yes
Delete leading and trailing silent blocks : No
Null samples used in CRC calculations : Yes
Used interface : Native Win32 interface for Win NT & 2000
Used output format : User Defined Encoder
Selected bitrate : 896 kBit/s
Quality : High
Add ID3 tag : No
Command line compressor : C:\Program Files\Exact Audio Copy\FLAC\FLAC.EXE
Additional command line options : -V -8 %source%
TOC of the extracted CD
Track | Start | Length | Start sector | End sector
---------------------------------------------------------
1 | 0:00.00 | 2:25.22 | 0 | 10896
2 | 2:25.22 | 2:45.35 | 10897 | 23306
3 | 5:10.57 | 2:31.44 | 23307 | 34675
4 | 7:42.26 | 1:48.18 | 34676 | 42793
5 | 9:30.44 | 0:39.23 | 42794 | 45741
6 | 10:09.67 | 4:36.12 | 45742 | 66453
7 | 14:46.04 | 0:44.65 | 66454 | 69818
8 | 15:30.69 | 4:07.23 | 69819 | 88366
9 | 19:38.17 | 1:40.70 | 88367 | 95936
10 | 21:19.12 | 3:30.09 | 95937 | 111695
11 | 24:49.21 | 1:32.16 | 111696 | 118611
12 | 26:21.37 | 2:02.01 | 118612 | 127762
13 | 28:23.38 | 0:52.62 | 127763 | 131724
14 | 29:16.25 | 4:41.06 | 131725 | 152805
15 | 33:57.31 | 0:45.51 | 152806 | 156231
16 | 34:43.07 | 4:01.30 | 156232 | 174336
17 | 38:44.37 | 1:33.69 | 174337 | 181380
18 | 40:18.31 | 1:49.20 | 181381 | 189575
19 | 42:07.51 | 1:21.09 | 189576 | 195659
20 | 43:28.60 | 2:08.46 | 195660 | 205305
21 | 45:37.31 | 2:19.57 | 205306 | 215787
22 | 47:57.13 | 1:28.46 | 215788 | 222433
23 | 49:25.59 | 1:09.31 | 222434 | 227639
24 | 50:35.15 | 5:16.51 | 227640 | 251390
25 | 55:51.66 | 0:47.01 | 251391 | 254916
26 | 56:38.67 | 2:59.37 | 254917 | 268378
27 | 59:38.29 | 1:08.09 | 268379 | 273487
28 | 60:46.38 | 4:09.29 | 273488 | 292191
Range status and errors
Selected range
Filename D:\temp\Music\Bella Napoli (Baccano)\Bella Napoli.wav
Peak level 89.1 %
Extraction speed 2.9 X
Range quality 100.0 %
Test CRC 74194DEB
Copy CRC 74194DEB
Copy OK
No errors occurred
AccurateRip summary
Track 1 accurately ripped (confidence 2) [EAD78A87] (AR v2)
Track 2 accurately ripped (confidence 2) [2774E7E4] (AR v2)
Track 3 accurately ripped (confidence 2) [274FE423] (AR v2)
Track 4 accurately ripped (confidence 2) [1A1473EB] (AR v2)
Track 5 accurately ripped (confidence 2) [B6B51FD0] (AR v2)
Track 6 accurately ripped (confidence 2) [6E8B218E] (AR v2)
Track 7 accurately ripped (confidence 2) [807A39F7] (AR v2)
Track 8 accurately ripped (confidence 2) [BA93FF95] (AR v2)
Track 9 accurately ripped (confidence 2) [B4732B0F] (AR v2)
Track 10 accurately ripped (confidence 2) [695827FA] (AR v2)
Track 11 accurately ripped (confidence 2) [F1DD1F44] (AR v2)
Track 12 accurately ripped (confidence 2) [CB2F10F8] (AR v2)
Track 13 accurately ripped (confidence 2) [C85044D0] (AR v2)
Track 14 accurately ripped (confidence 2) [5890F35A] (AR v2)
Track 15 accurately ripped (confidence 2) [DA8CAF9B] (AR v2)
Track 16 accurately ripped (confidence 2) [EE429740] (AR v2)
Track 17 accurately ripped (confidence 2) [754CEE01] (AR v2)
Track 18 accurately ripped (confidence 2) [AC321923] (AR v2)
Track 19 accurately ripped (confidence 2) [67CC7287] (AR v2)
Track 20 accurately ripped (confidence 2) [25E635C4] (AR v2)
Track 21 accurately ripped (confidence 2) [195B5A0E] (AR v2)
Track 22 accurately ripped (confidence 2) [3DCC1F2A] (AR v2)
Track 23 accurately ripped (confidence 2) [84C3B3D9] (AR v2)
Track 24 accurately ripped (confidence 2) [3815C402] (AR v2)
Track 25 accurately ripped (confidence 2) [56D2D121] (AR v2)
Track 26 accurately ripped (confidence 2) [192B0867] (AR v2)
Track 27 accurately ripped (confidence 2) [1878552A] (AR v2)
Track 28 accurately ripped (confidence 2) [F04EB0A1] (AR v2)
All tracks accurately ripped
End of status report
==== Log checksum 67C3A03E64AF0D6E96CC9E8F382F1E485209165F54C3AA3EB066CAC0B8773C6C ====



Показать сообщения:    

Текущее время: 03-Дек 22:45

Часовой пояс: UTC + 3


Вы не можете начинать темы
Вы не можете отвечать на сообщения
Вы не можете редактировать свои сообщения
Вы не можете удалять свои сообщения
Вы не можете голосовать в опросах
Вы не можете прикреплять файлы к сообщениям
Вы не можете скачивать файлы