(Lied) Schubert - Schwanengesang; Seidl-Lieder - Ch. Pregardien, A. Staier - 2008, APE (image+.cue) lossless


 

[Цитировать]

Franz Schubert - Schwanengesang; Seidl-Lieder - Ch. Pregardien, A. Staier
Жанр: Lied
Страна-производитель диска: EU
Год издания диска: 2008
Издатель (лейбл): Challenge Classics
Номер по каталогу: CC 72302
Дата записи: 2008
Аудиокодек: APE
Тип рипа: image+.cue
Битрейт аудио: lossless
Продолжительность: 71:48
Источник: скачано с web
Важная информация: рип не мой, все благодарности оригинальному аплоудеру / Important Note: not my rip, all credits to the original uploader
Наличие сканов в содержимом раздачи: да
Треклист:
[01] Herbst, D.945
[02]-[14] Schwanengesang, D.957
[15] Sehnsucht, D.879
[16] Die Taubenpost, D.965A (D957 No. 14)
[17] Am Fenster, D.878
[18] Bei dir allein, D.866/2
[19] Der Wanderer an den Mond, D.870
[20] Das Zugenglocklein, D.871
[21] Im Freien, D.880
Исполнители:
Christoph Prégardien (tenor)
Andreas Staier (fortepiano)

Лог создания рипа

Exact Audio Copy V0.99 prebeta 3 from 28. July 2007
EAC extraction logfile from 5. November 2008, 15:38
Pregardien\Staier / Schwanengesang
Used drive : PLEXTOR DVDR PX-810SA Adapter: 1 ID: 1
Read mode : Secure
Utilize accurate stream : Yes
Defeat audio cache : Yes
Make use of C2 pointers : No
Read offset correction : 48
Overread into Lead-In and Lead-Out : No
Fill up missing offset samples with silence : Yes
Delete leading and trailing silent blocks : No
Null samples used in CRC calculations : Yes
Used interface : Installed external ASPI interface
Used output format : Monkey's Audio Lossless Encoder
Selected bitrate : High Lossless Compression
Quality : High
Add ID3 tag : Yes
Command line compressor : C:\Program Files\Monkey's Audio\MAC.exe
Additional command line options : %s %d -c3000
TOC of the extracted CD
Track | Start | Length | Start sector | End sector
---------------------------------------------------------
1 | 0:00.00 | 3:19.46 | 0 | 14970
2 | 3:19.46 | 2:44.25 | 14971 | 27295
3 | 6:03.71 | 4:47.21 | 27296 | 48841
4 | 10:51.17 | 3:44.49 | 48842 | 65690
5 | 14:35.66 | 3:21.59 | 65691 | 80824
6 | 17:57.50 | 2:40.42 | 80825 | 92866
7 | 20:38.17 | 6:35.31 | 92867 | 122522
8 | 27:13.48 | 4:12.58 | 122523 | 141480
9 | 31:26.31 | 2:08.46 | 141481 | 151126
10 | 33:35.02 | 2:43.30 | 151127 | 163381
11 | 36:18.32 | 1:57.26 | 163382 | 172182
12 | 38:15.58 | 2:20.57 | 172183 | 182739
13 | 40:36.40 | 4:02.69 | 182740 | 200958
14 | 44:39.34 | 4:10.56 | 200959 | 219764
15 | 48:50.15 | 3:26.48 | 219765 | 235262
16 | 52:16.63 | 2:22.66 | 235263 | 245978
17 | 54:39.54 | 3:45.50 | 245979 | 262903
18 | 58:25.29 | 1:56.07 | 262904 | 271610
19 | 60:21.36 | 2:17.54 | 271611 | 281939
20 | 62:39.15 | 4:17.55 | 281940 | 301269
21 | 66:56.70 | 4:51.15 | 301270 | 323109
Range status and errors
Selected range
Filename G:\Schubert\CDImage.wav
Peak level 99.0 %
Range quality 100.0 %
Copy CRC 39E21391
Copy OK
No errors occurred
AccurateRip summary
Track 1 not present in database
Track 2 not present in database
Track 3 not present in database
Track 4 not present in database
Track 5 not present in database
Track 6 not present in database
Track 7 not present in database
Track 8 not present in database
Track 9 not present in database
Track 10 not present in database
Track 11 not present in database
Track 12 not present in database
Track 13 not present in database
Track 14 not present in database
Track 15 not present in database
Track 16 not present in database
Track 17 not present in database
Track 18 not present in database
Track 19 not present in database
Track 20 not present in database
Track 21 not present in database
None of the tracks are present in the AccurateRip database
End of status report



Показать сообщения:    

Текущее время: 03-Дек 01:20

Часовой пояс: UTC + 3


Вы не можете начинать темы
Вы не можете отвечать на сообщения
Вы не можете редактировать свои сообщения
Вы не можете удалять свои сообщения
Вы не можете голосовать в опросах
Вы не можете прикреплять файлы к сообщениям
Вы не можете скачивать файлы