(Lied) Schubert - Schwanengesang; Goethe-Lieder - W. Gura, Ch. Berner - 2007, APE (image+.cue) lossless


 

[Цитировать]

Franz Schubert - Schwanengesang; Goethe-Lieder - W. Güra, Ch. Berner
Жанр: Lied
Страна-производитель диска: EU
Год издания диска: 2007
Издатель (лейбл): Harmonia Mundi
Номер по каталогу: HMC 901931
Дата записи: 2007
Аудиокодек: APE
Тип рипа: image+.cue
Битрейт аудио: lossless
Продолжительность: 69:37
Источник: скачано с web
Важная информация: рип не мой, все благодарности оригинальному аплоудеру / Important Note: not my rip, all credits to the original uploader
Наличие сканов в содержимом раздачи: да
Треклист:
[01]-[14] Schwanengesang D.957
[15] Willkommen und Abschied op. 56/1
[16] An den Mond D.259
[17] Schaefers Klagelied op. 3/1
[18] An Mignon op. 19/2
[19] Sehnsucht op. 37
[20] Der Musensohn op. 92/1
Исполнители:
Werner Güra (tenor) & Christoph Berner (fortepiano Ehrbar)

Лог создания рипа

Exact Audio Copy V0.99 prebeta 3 from 28. July 2007
EAC extraction logfile from 6. November 2008, 13:46
Werner Güra, Christoph Berner / Werner Güra, Christoph Berner Schubert. Schwanengesang
Used drive : PLEXTOR DVDR PX-810SA Adapter: 1 ID: 1
Read mode : Secure
Utilize accurate stream : Yes
Defeat audio cache : Yes
Make use of C2 pointers : No
Read offset correction : 48
Overread into Lead-In and Lead-Out : No
Fill up missing offset samples with silence : Yes
Delete leading and trailing silent blocks : No
Null samples used in CRC calculations : Yes
Used interface : Installed external ASPI interface
Used output format : Monkey's Audio Lossless Encoder
Selected bitrate : High Lossless Compression
Quality : High
Add ID3 tag : Yes
Command line compressor : C:\Program Files\Monkey's Audio\MAC.exe
Additional command line options : %s %d -c3000
TOC of the extracted CD
Track | Start | Length | Start sector | End sector
---------------------------------------------------------
1 | 0:00.00 | 3:11.44 | 0 | 14368
2 | 3:11.44 | 5:06.27 | 14369 | 37345
3 | 8:17.71 | 3:25.32 | 37346 | 52752
4 | 11:43.28 | 3:57.71 | 52753 | 70598
5 | 15:41.24 | 2:27.01 | 70599 | 81624
6 | 18:08.25 | 6:02.56 | 81625 | 108830
7 | 24:11.06 | 4:04.52 | 108831 | 127182
8 | 28:15.58 | 2:11.01 | 127183 | 137008
9 | 30:26.59 | 2:45.68 | 137009 | 149451
10 | 33:12.52 | 2:27.07 | 149452 | 160483
11 | 35:39.59 | 3:17.31 | 160484 | 175289
12 | 38:57.15 | 4:03.61 | 175290 | 193575
13 | 43:01.01 | 3:57.07 | 193576 | 211357
14 | 46:58.08 | 4:03.67 | 211358 | 229649
15 | 51:02.00 | 3:18.70 | 229650 | 244569
16 | 54:20.70 | 3:00.05 | 244570 | 258074
17 | 57:21.00 | 3:05.39 | 258075 | 271988
18 | 60:26.39 | 3:19.06 | 271989 | 286919
19 | 63:45.45 | 3:35.08 | 286920 | 303052
20 | 67:20.53 | 2:14.22 | 303053 | 313124
Range status and errors
Selected range
Filename G:\Schubert Gura\CDImage.wav
Peak level 100.0 %
Range quality 100.0 %
Copy CRC 7D84A630
Copy OK
No errors occurred
AccurateRip summary
Track 1 not present in database
Track 2 not present in database
Track 3 not present in database
Track 4 not present in database
Track 5 not present in database
Track 6 not present in database
Track 7 not present in database
Track 8 not present in database
Track 9 not present in database
Track 10 not present in database
Track 11 not present in database
Track 12 not present in database
Track 13 not present in database
Track 14 not present in database
Track 15 not present in database
Track 16 not present in database
Track 17 not present in database
Track 18 not present in database
Track 19 not present in database
Track 20 not present in database
None of the tracks are present in the AccurateRip database
End of status report



Показать сообщения:    

Текущее время: 09-Дек 18:26

Часовой пояс: UTC + 3


Вы не можете начинать темы
Вы не можете отвечать на сообщения
Вы не можете редактировать свои сообщения
Вы не можете удалять свои сообщения
Вы не можете голосовать в опросах
Вы не можете прикреплять файлы к сообщениям
Вы не можете скачивать файлы