Татьяна Дудина - Йога. Суставная гимнастика [2009, Йога, фитнес, DVDRip, RUS] (Видеоурок)


Статистика раздачи [Обновить пиров]
Размер:  338 MB   |    Зарегистрирован:  10 месяцев 4 дня   |    Скачан:  0 раз

Полного источника не было: Никогда

 
   
 
 
 

[Цитировать]

Татьяна Дудина - Йога. Суставная гимнастика
Страна: Россия
Тематика: Йога, фитнес
Тип раздаваемого материала: Видеоурок
Продолжительность: 00:58:42
Год выпуска: 2009
Язык: Русский
Перевод: Не требуется
Описание: Суставная гимнастика - это комплекс упражнений, направленный на совершенствование физического и энергетического тел. Она не имеет возрастных ограничений.
Физические упражнения суставной гимнастики улучшают кровообращение, помогают нормализовать работу суставов и внутренних органов, очистить организм от шлаков. Она делает прочными и эластичными связки, крепкими суставы, что помогает избежать дефектов осанки, смещения, а значит и нарушения работы внутренних органов, их травм, повышает общую жизнестойкость организма. Занятия суставной гимнастикой обеспечивают не только подвижность и гибкость, но и вырабатывают навыки психического самоконтроля и позитивно сказываются на общем самочувствии и настроении. Заметно повышаются работоспособность человека и общая выносливость. К выполнению каждого упражнения нужно подходить внимательно и осторожно. Идти от простого к сложному. И обязательно нужен положительный настрой перед выполнением комплекса.
Качество: DVDRip
Формат: AVI
Видео кодек: XviD
Аудио кодек: MP3
Видео: Xvid 720x544 4:3 25fps 806Kbps
Аудио: MP3 48000Hz stereo 2channels 128kbps

Отчет MediaInfo

Format : AVI
Format/Info : Audio Video Interleave
File size : 338 MiB
Duration : 58mn 42s
Overall bit rate : 806 Kbps
Writing application : VirtualDubMod 1.5.10.3 | www.virtualdub-fr.org || (build 2550/release)
Writing library : VirtualDubMod build 2550/release
Video
ID : 0
Format : MPEG-4 Visual
Format profile : Advanced Simple@L5
Format settings, BVOP : 1
Format settings, QPel : No
Format settings, GMC : No warppoints
Format settings, Matrix : Default (H.263)
Codec ID : XVID
Codec ID/Hint : XviD
Duration : 58mn 42s
Bit rate : 668 Kbps
Width : 720 pixels
Height : 544 pixels
Display aspect ratio : 4:3
Frame rate : 25.000 fps
Color space : YUV
Chroma subsampling : 4:2:0
Bit depth : 8 bits
Scan type : Progressive
Compression mode : Lossy
Bits/(Pixel*Frame) : 0.068
Stream size : 280 MiB (83%)
Writing library : XviD 1.2.1 (UTC 2008-12-04)
Audio
ID : 1
Format : MPEG Audio
Format version : Version 1
Format profile : Layer 3
Codec ID : 55
Codec ID/Hint : MP3
Duration : 58mn 42s
Bit rate mode : Constant
Bit rate : 128 Kbps
Channel(s) : 2 channels
Sampling rate : 48.0 KHz
Compression mode : Lossy
Stream size : 53.8 MiB (16%)
Alignment : Aligned on interleaves
Interleave, duration : 40 ms (1.00 video frame)
Interleave, preload duration : 504 ms
Writing library : LAME3.99r
Encoding settings : -m s -V 4 -q 2 -lowpass 17 -b

Скриншоты

Скан обложки

DVD здесь: http://teatrix.ru/viewtopic.php?t=4352519
DVDrip лучшего качества: http://teatrix.ru/viewtopic.php?t=4359518
[teatrix.ru].t17807.torrent 
Торрент: Зарегистрирован [ 2016-03-17 00:51 ] · 23B7F6EC15608AA67B189FA004B64FE3F2D4C616

Скачать .torrent

Скачать

14 KB

Статус: проверено
Скачан: 0 раз
Размер: 338 MB
terms.php



Быстрый ответ

Имя:

      
Для отправки сообщений необходимо включить JavaScript
Показать сообщения:    

Текущее время: 21-Янв 11:38

Часовой пояс: UTC + 3


Вы можете начинать темы
Вы можете отвечать на сообщения
Вы не можете редактировать свои сообщения
Вы не можете удалять свои сообщения
Вы не можете голосовать в опросах
Вы не можете прикреплять файлы к сообщениям
Вы можете скачивать файлы