(Classical / Vocal) Beethoven - An die ferne Geliebte; Schubert - Schwanengesang / Бетховен - К далёкой возлюбленной; Шуберт - Лебединая песнь (Matthias Goerne, Alfred Brendel, 2003) - 2005, FLAC (tracks+.cue) lossless


 

[Цитировать]

Ludwig van Beethoven (1770–1827)
An die ferne Geliebte
Franz Schubert (1797–1828)
Schwanengesang • Herbst
Matthias Goerne baritone
Alfred Brendel piano
Жанр: Classical / Vocal
Дата и место записи: Wigmore Hall, London, 5 & 7 November 2003 (live)
Формат записи: DDD, Stereo
Год издания диска: 2005
Издатель (лейбл): Decca
Номер по каталогу: 475 6011
Аудиокодек: FLAC
Тип рипа: tracks+.cue
Битрейт аудио: lossless
Продолжительность: 1:12:13
Наличие сканов в содержимом раздачи: да
Источник: LzTr
Релизёр: skoinas

-Tracklist / Треклист
Ludwig van Beethoven
«An die ferne Geliebte», Op. 98 - 14:29
Applause - 0:09
  • Nr. 1. «Auf dem Hügel sitz' ich» - 2:35
  • Nr. 2. «Wo die Berge so blau» - 1:48
  • Nr. 3. «Leichte Segler in den Hohen» - 1:45
  • Nr. 4. «Diese Wolken in den Hohen» - 1:12
  • Nr. 5. «Es kehret der Maien» - 2:37
  • Nr. 6. «Nimm sie hin denn, diese Lieder» - 4:09
  • Applause - 0:16
    Franz Schubert
    «Schwanengesang», D. 957 - 57:44
    Nr. 1. «Liebesbotschaft» - 3:09
  • Nr. 2. «Kriegers Ahnung» - 4:47
  • Nr. 3. «Frühlingssehnsucht» - 3:18
  • Nr. 4. «Ständchen» - 3:46
  • Nr. 5. «Aufenthalt» - 2:51
  • «Herbst», D. 945 - 3:58
  • Nr. 6. «In der Ferne» - 5:55
  • Nr. 7. «Abschied» - 4:30
  • Nr. 8. «Der Atlas» - 2:12
  • Nr. 9. «Ihr Bild» - 3:25
  • Nr. 10. «Das Fischermädchen» - 2:13
  • Nr. 11. «Die Stadt» - 3:11
  • Nr. 12. «Am Meer» - 4:44
  • Nr. 13. «Der Doppelgänger» - 4:27
  • Applause - 0:31
  • Nr. 14. «Die Taubenpost» - 4:18
  • Applause - 0:28-

    XLD log / Отчёт XLD

    X Lossless Decoder version 20100518 (120.3)
    XLD extraction logfile from 2010-05-27 18:06:57 -0700
    Matthias Goerne, Alfred Brendel / Schubert: Schwanengesang; Beethoven: An de ferne Geliebte
    Used drive : HL-DT-ST DVDRW GS21N (revision SA18)
    Use cdparanoia mode : YES (CDParanoia III 10.2 engine)
    Disable audio cache : OK for the drive with cache less than 2750KB
    Make use of C2 pointers : NO
    Read offset correction : 667
    Max retry count : 100
    TOC of the extracted CD
    Track | Start | Length | Start sector | End sector
    ---------------------------------------------------------
    1 | 00:00:00 | 00:08:65 | 0 | 664
    2 | 00:08:65 | 02:35:08 | 665 | 12297
    3 | 02:43:73 | 01:47:69 | 12298 | 20391
    4 | 04:31:67 | 01:44:55 | 20392 | 28246
    5 | 06:16:47 | 01:11:68 | 28247 | 33639
    6 | 07:28:40 | 02:36:41 | 33640 | 45380
    7 | 10:05:06 | 04:08:49 | 45381 | 64029
    8 | 14:13:55 | 00:15:52 | 64030 | 65206
    9 | 14:29:32 | 03:09:04 | 65207 | 79385
    10 | 17:38:36 | 04:46:59 | 79386 | 100894
    11 | 22:25:20 | 03:18:13 | 100895 | 115757
    12 | 25:43:33 | 03:46:14 | 115758 | 132721
    13 | 29:29:47 | 02:50:64 | 132722 | 145535
    14 | 32:20:36 | 03:58:11 | 145536 | 163396
    15 | 36:18:47 | 05:55:32 | 163397 | 190053
    16 | 42:14:04 | 04:29:67 | 190054 | 210295
    17 | 46:43:71 | 02:11:68 | 210296 | 220188
    18 | 48:55:64 | 03:25:18 | 220189 | 235581
    19 | 52:21:07 | 02:13:08 | 235582 | 245564
    20 | 54:34:15 | 03:11:16 | 245565 | 259905
    21 | 57:45:31 | 04:44:07 | 259906 | 281212
    22 | 62:29:38 | 04:26:61 | 281213 | 301223
    23 | 66:56:24 | 00:30:51 | 301224 | 303524
    24 | 67:27:00 | 04:17:53 | 303525 | 322852
    25 | 71:44:53 | 00:28:24 | 322853 | 324976
    Track 01
    Filename : /Users/John/Transfers/Schubert - Schwanengesant; Beethoven (Matthew Goerne, Alfred Brendel) [FLAC]/01 Matthias Goerne, Alfred Brendel - Beethoven - An die ferne Geliebte, op. 98 - Applause.flac
    Pre-gap length : 00:02:00
    CRC32 hash (test run) : E97DABB6
    CRC32 hash : E97DABB6
    CRC32 hash (skip zero) : 7D879B31
    AccurateRip signature : 52FBD755
    ->Accurately ripped! (confidence 5)
    Statistics
    Read error : 0
    Skipped (treated as error) : 0
    Edge jitter error (maybe fixed) : 0
    Atom jitter error (maybe fixed) : 0
    Drift error (maybe fixed) : 0
    Dropped bytes error (maybe fixed) : 0
    Duplicated bytes error (maybe fixed) : 0
    Inconsistency in error sectors : 0
    Track 02
    Filename : /Users/John/Transfers/Schubert - Schwanengesant; Beethoven (Matthew Goerne, Alfred Brendel) [FLAC]/02 Matthias Goerne, Alfred Brendel - I Auf dem Hügel sitz' ich.flac
    CRC32 hash (test run) : 7D5AED93
    CRC32 hash : 7D5AED93
    CRC32 hash (skip zero) : 815A0C54
    AccurateRip signature : 69C536A1
    ->Accurately ripped! (confidence 5)
    Statistics
    Read error : 0
    Skipped (treated as error) : 0
    Edge jitter error (maybe fixed) : 0
    Atom jitter error (maybe fixed) : 0
    Drift error (maybe fixed) : 0
    Dropped bytes error (maybe fixed) : 0
    Duplicated bytes error (maybe fixed) : 0
    Inconsistency in error sectors : 0
    Track 03
    Filename : /Users/John/Transfers/Schubert - Schwanengesant; Beethoven (Matthew Goerne, Alfred Brendel) [FLAC]/03 Matthias Goerne, Alfred Brendel - II Wo die Berge so blau.flac
    CRC32 hash (test run) : 799BE89D
    CRC32 hash : 799BE89D
    CRC32 hash (skip zero) : 500392B4
    AccurateRip signature : AECBE2D8
    ->Accurately ripped! (confidence 5)
    Statistics
    Read error : 0
    Skipped (treated as error) : 0
    Edge jitter error (maybe fixed) : 0
    Atom jitter error (maybe fixed) : 0
    Drift error (maybe fixed) : 0
    Dropped bytes error (maybe fixed) : 0
    Duplicated bytes error (maybe fixed) : 0
    Inconsistency in error sectors : 0
    Track 04
    Filename : /Users/John/Transfers/Schubert - Schwanengesant; Beethoven (Matthew Goerne, Alfred Brendel) [FLAC]/04 Matthias Goerne, Alfred Brendel - III Leichte Segler in den Hohen.flac
    CRC32 hash (test run) : C946A645
    CRC32 hash : C946A645
    CRC32 hash (skip zero) : 34D99B1B
    AccurateRip signature : 412B0452
    ->Accurately ripped! (confidence 5)
    Statistics
    Read error : 0
    Skipped (treated as error) : 0
    Edge jitter error (maybe fixed) : 0
    Atom jitter error (maybe fixed) : 0
    Drift error (maybe fixed) : 0
    Dropped bytes error (maybe fixed) : 0
    Duplicated bytes error (maybe fixed) : 0
    Inconsistency in error sectors : 0
    Track 05
    Filename : /Users/John/Transfers/Schubert - Schwanengesant; Beethoven (Matthew Goerne, Alfred Brendel) [FLAC]/05 Matthias Goerne, Alfred Brendel - IV Diese Wolken in den Hohen.flac
    CRC32 hash (test run) : 360F8A67
    CRC32 hash : 360F8A67
    CRC32 hash (skip zero) : 506A3272
    AccurateRip signature : 2495F2BE
    ->Accurately ripped! (confidence 5)
    Statistics
    Read error : 0
    Skipped (treated as error) : 0
    Edge jitter error (maybe fixed) : 0
    Atom jitter error (maybe fixed) : 0
    Drift error (maybe fixed) : 0
    Dropped bytes error (maybe fixed) : 0
    Duplicated bytes error (maybe fixed) : 0
    Inconsistency in error sectors : 0
    Track 06
    Filename : /Users/John/Transfers/Schubert - Schwanengesant; Beethoven (Matthew Goerne, Alfred Brendel) [FLAC]/06 Matthias Goerne, Alfred Brendel - V Es kehret der Maien.flac
    CRC32 hash (test run) : 3E1A92F7
    CRC32 hash : 3E1A92F7
    CRC32 hash (skip zero) : 8FC44A14
    AccurateRip signature : 7575E5E8
    ->Accurately ripped! (confidence 5)
    Statistics
    Read error : 0
    Skipped (treated as error) : 0
    Edge jitter error (maybe fixed) : 0
    Atom jitter error (maybe fixed) : 0
    Drift error (maybe fixed) : 0
    Dropped bytes error (maybe fixed) : 0
    Duplicated bytes error (maybe fixed) : 0
    Inconsistency in error sectors : 0
    Track 07
    Filename : /Users/John/Transfers/Schubert - Schwanengesant; Beethoven (Matthew Goerne, Alfred Brendel) [FLAC]/07 Matthias Goerne, Alfred Brendel - VI Nimm sie hin denn, diese Lieder.flac
    CRC32 hash (test run) : D01A613F
    CRC32 hash : D01A613F
    CRC32 hash (skip zero) : FC00117D
    AccurateRip signature : E5474913
    ->Accurately ripped! (confidence 5)
    Statistics
    Read error : 0
    Skipped (treated as error) : 0
    Edge jitter error (maybe fixed) : 0
    Atom jitter error (maybe fixed) : 0
    Drift error (maybe fixed) : 0
    Dropped bytes error (maybe fixed) : 0
    Duplicated bytes error (maybe fixed) : 0
    Inconsistency in error sectors : 0
    Track 08
    Filename : /Users/John/Transfers/Schubert - Schwanengesant; Beethoven (Matthew Goerne, Alfred Brendel) [FLAC]/08 Matthias Goerne, Alfred Brendel - Applause.flac
    CRC32 hash (test run) : FB40534D
    CRC32 hash : FB40534D
    CRC32 hash (skip zero) : 49181EAB
    AccurateRip signature : 8F74EF04
    ->Accurately ripped! (confidence 5)
    Statistics
    Read error : 0
    Skipped (treated as error) : 0
    Edge jitter error (maybe fixed) : 0
    Atom jitter error (maybe fixed) : 0
    Drift error (maybe fixed) : 0
    Dropped bytes error (maybe fixed) : 0
    Duplicated bytes error (maybe fixed) : 0
    Inconsistency in error sectors : 0
    Track 09
    Filename : /Users/John/Transfers/Schubert - Schwanengesant; Beethoven (Matthew Goerne, Alfred Brendel) [FLAC]/09 Matthias Goerne, Alfred Brendel - Schubert - Schwanengesang, D957 - Liebesbotschaft.flac
    Pre-gap length : 00:03:02
    CRC32 hash (test run) : D1477F09
    CRC32 hash : D1477F09
    CRC32 hash (skip zero) : 9ED6CDA9
    AccurateRip signature : DCA87542
    ->Accurately ripped! (confidence 5)
    Statistics
    Read error : 0
    Skipped (treated as error) : 0
    Edge jitter error (maybe fixed) : 0
    Atom jitter error (maybe fixed) : 0
    Drift error (maybe fixed) : 0
    Dropped bytes error (maybe fixed) : 0
    Duplicated bytes error (maybe fixed) : 0
    Inconsistency in error sectors : 0
    Track 10
    Filename : /Users/John/Transfers/Schubert - Schwanengesant; Beethoven (Matthew Goerne, Alfred Brendel) [FLAC]/10 Matthias Goerne, Alfred Brendel - Kriegers Ahnung.flac
    Pre-gap length : 00:00:72
    CRC32 hash (test run) : 74DAE2D7
    CRC32 hash : 74DAE2D7
    CRC32 hash (skip zero) : C8A28BE8
    AccurateRip signature : 6A36ABCF
    ->Accurately ripped! (confidence 5)
    Statistics
    Read error : 0
    Skipped (treated as error) : 0
    Edge jitter error (maybe fixed) : 0
    Atom jitter error (maybe fixed) : 0
    Drift error (maybe fixed) : 0
    Dropped bytes error (maybe fixed) : 0
    Duplicated bytes error (maybe fixed) : 0
    Inconsistency in error sectors : 0
    Track 11
    Filename : /Users/John/Transfers/Schubert - Schwanengesant; Beethoven (Matthew Goerne, Alfred Brendel) [FLAC]/11 Matthias Goerne, Alfred Brendel - Fruehlingssehnsucht.flac
    Pre-gap length : 00:01:11
    CRC32 hash (test run) : 18BA33F3
    CRC32 hash : 18BA33F3
    CRC32 hash (skip zero) : 3A9E5E63
    AccurateRip signature : A95DB2BA
    ->Accurately ripped! (confidence 5)
    Statistics
    Read error : 0
    Skipped (treated as error) : 0
    Edge jitter error (maybe fixed) : 0
    Atom jitter error (maybe fixed) : 0
    Drift error (maybe fixed) : 0
    Dropped bytes error (maybe fixed) : 0
    Duplicated bytes error (maybe fixed) : 0
    Inconsistency in error sectors : 0
    Track 12
    Filename : /Users/John/Transfers/Schubert - Schwanengesant; Beethoven (Matthew Goerne, Alfred Brendel) [FLAC]/12 Matthias Goerne, Alfred Brendel - Staendchen.flac
    Pre-gap length : 00:00:72
    CRC32 hash (test run) : C099DA5B
    CRC32 hash : C099DA5B
    CRC32 hash (skip zero) : E81EA261
    AccurateRip signature : 7B02A997
    ->Accurately ripped! (confidence 5)
    Statistics
    Read error : 0
    Skipped (treated as error) : 0
    Edge jitter error (maybe fixed) : 0
    Atom jitter error (maybe fixed) : 0
    Drift error (maybe fixed) : 0
    Dropped bytes error (maybe fixed) : 0
    Duplicated bytes error (maybe fixed) : 0
    Inconsistency in error sectors : 0
    Track 13
    Filename : /Users/John/Transfers/Schubert - Schwanengesant; Beethoven (Matthew Goerne, Alfred Brendel) [FLAC]/13 Matthias Goerne, Alfred Brendel - Aufenthalt.flac
    Pre-gap length : 00:02:02
    CRC32 hash (test run) : E0D4F0E5
    CRC32 hash : E0D4F0E5
    CRC32 hash (skip zero) : 46B2F4FC
    AccurateRip signature : A4B82F66
    ->Accurately ripped! (confidence 5)
    Statistics
    Read error : 0
    Skipped (treated as error) : 0
    Edge jitter error (maybe fixed) : 0
    Atom jitter error (maybe fixed) : 0
    Drift error (maybe fixed) : 0
    Dropped bytes error (maybe fixed) : 0
    Duplicated bytes error (maybe fixed) : 0
    Inconsistency in error sectors : 0
    Track 14
    Filename : /Users/John/Transfers/Schubert - Schwanengesant; Beethoven (Matthew Goerne, Alfred Brendel) [FLAC]/14 Matthias Goerne, Alfred Brendel - Herbst, D945.flac
    Pre-gap length : 00:02:21
    CRC32 hash (test run) : 4464728D
    CRC32 hash : 4464728D
    CRC32 hash (skip zero) : 570F3301
    AccurateRip signature : DB71A136
    ->Accurately ripped! (confidence 5)
    Statistics
    Read error : 0
    Skipped (treated as error) : 0
    Edge jitter error (maybe fixed) : 0
    Atom jitter error (maybe fixed) : 0
    Drift error (maybe fixed) : 0
    Dropped bytes error (maybe fixed) : 0
    Duplicated bytes error (maybe fixed) : 0
    Inconsistency in error sectors : 0
    Track 15
    Filename : /Users/John/Transfers/Schubert - Schwanengesant; Beethoven (Matthew Goerne, Alfred Brendel) [FLAC]/15 Matthias Goerne, Alfred Brendel - In der Ferne.flac
    Pre-gap length : 00:02:59
    CRC32 hash (test run) : 7D0CEEC2
    CRC32 hash : 7D0CEEC2
    CRC32 hash (skip zero) : 0329ABA4
    AccurateRip signature : B83E20FC
    ->Accurately ripped! (confidence 5)
    Statistics
    Read error : 0
    Skipped (treated as error) : 0
    Edge jitter error (maybe fixed) : 0
    Atom jitter error (maybe fixed) : 0
    Drift error (maybe fixed) : 0
    Dropped bytes error (maybe fixed) : 0
    Duplicated bytes error (maybe fixed) : 0
    Inconsistency in error sectors : 0
    Track 16
    Filename : /Users/John/Transfers/Schubert - Schwanengesant; Beethoven (Matthew Goerne, Alfred Brendel) [FLAC]/16 Matthias Goerne, Alfred Brendel - Abschied.flac
    Pre-gap length : 00:04:22
    CRC32 hash (test run) : ED66CDB3
    CRC32 hash : ED66CDB3
    CRC32 hash (skip zero) : F430D148
    AccurateRip signature : 420866FC
    ->Accurately ripped! (confidence 5)
    Statistics
    Read error : 0
    Skipped (treated as error) : 0
    Edge jitter error (maybe fixed) : 0
    Atom jitter error (maybe fixed) : 0
    Drift error (maybe fixed) : 0
    Dropped bytes error (maybe fixed) : 0
    Duplicated bytes error (maybe fixed) : 0
    Inconsistency in error sectors : 0
    Track 17
    Filename : /Users/John/Transfers/Schubert - Schwanengesant; Beethoven (Matthew Goerne, Alfred Brendel) [FLAC]/17 Matthias Goerne, Alfred Brendel - Der Atlas.flac
    Pre-gap length : 00:02:74
    CRC32 hash (test run) : 96666A15
    CRC32 hash : 96666A15
    CRC32 hash (skip zero) : DF8B1831
    AccurateRip signature : 4EC5A9C9
    ->Accurately ripped! (confidence 5)
    Statistics
    Read error : 0
    Skipped (treated as error) : 0
    Edge jitter error (maybe fixed) : 0
    Atom jitter error (maybe fixed) : 0
    Drift error (maybe fixed) : 0
    Dropped bytes error (maybe fixed) : 0
    Duplicated bytes error (maybe fixed) : 0
    Inconsistency in error sectors : 0
    Track 18
    Filename : /Users/John/Transfers/Schubert - Schwanengesant; Beethoven (Matthew Goerne, Alfred Brendel) [FLAC]/18 Matthias Goerne, Alfred Brendel - Ihr Bild.flac
    Pre-gap length : 00:01:33
    CRC32 hash (test run) : 9A619CCE
    CRC32 hash : 9A619CCE
    CRC32 hash (skip zero) : 833A9FA9
    AccurateRip signature : FA3215E1
    ->Accurately ripped! (confidence 5)
    Statistics
    Read error : 0
    Skipped (treated as error) : 0
    Edge jitter error (maybe fixed) : 0
    Atom jitter error (maybe fixed) : 0
    Drift error (maybe fixed) : 0
    Dropped bytes error (maybe fixed) : 0
    Duplicated bytes error (maybe fixed) : 0
    Inconsistency in error sectors : 0
    Track 19
    Filename : /Users/John/Transfers/Schubert - Schwanengesant; Beethoven (Matthew Goerne, Alfred Brendel) [FLAC]/19 Matthias Goerne, Alfred Brendel - Das Fischermaedchen.flac
    Pre-gap length : 00:03:50
    CRC32 hash (test run) : 6B81D159
    CRC32 hash : 6B81D159
    CRC32 hash (skip zero) : CA48B437
    AccurateRip signature : 2C824412
    ->Accurately ripped! (confidence 5)
    Statistics
    Read error : 0
    Skipped (treated as error) : 0
    Edge jitter error (maybe fixed) : 0
    Atom jitter error (maybe fixed) : 0
    Drift error (maybe fixed) : 0
    Dropped bytes error (maybe fixed) : 0
    Duplicated bytes error (maybe fixed) : 0
    Inconsistency in error sectors : 0
    Track 20
    Filename : /Users/John/Transfers/Schubert - Schwanengesant; Beethoven (Matthew Goerne, Alfred Brendel) [FLAC]/20 Matthias Goerne, Alfred Brendel - Die Stadt.flac
    Pre-gap length : 00:03:22
    CRC32 hash (test run) : E94D761E
    CRC32 hash : E94D761E
    CRC32 hash (skip zero) : 1B85AF3F
    AccurateRip signature : 4BB4822F
    ->Accurately ripped! (confidence 5)
    Statistics
    Read error : 0
    Skipped (treated as error) : 0
    Edge jitter error (maybe fixed) : 0
    Atom jitter error (maybe fixed) : 0
    Drift error (maybe fixed) : 0
    Dropped bytes error (maybe fixed) : 0
    Duplicated bytes error (maybe fixed) : 0
    Inconsistency in error sectors : 0
    Track 21
    Filename : /Users/John/Transfers/Schubert - Schwanengesant; Beethoven (Matthew Goerne, Alfred Brendel) [FLAC]/21 Matthias Goerne, Alfred Brendel - Am Meer.flac
    Pre-gap length : 00:04:17
    CRC32 hash (test run) : 55A3DF1F
    CRC32 hash : 55A3DF1F
    CRC32 hash (skip zero) : 6FB33542
    AccurateRip signature : 710138AA
    ->Accurately ripped! (confidence 5)
    Statistics
    Read error : 0
    Skipped (treated as error) : 0
    Edge jitter error (maybe fixed) : 0
    Atom jitter error (maybe fixed) : 0
    Drift error (maybe fixed) : 0
    Dropped bytes error (maybe fixed) : 0
    Duplicated bytes error (maybe fixed) : 0
    Inconsistency in error sectors : 0
    Track 22
    Filename : /Users/John/Transfers/Schubert - Schwanengesant; Beethoven (Matthew Goerne, Alfred Brendel) [FLAC]/22 Matthias Goerne, Alfred Brendel - Der Doppelgaenger.flac
    Pre-gap length : 00:04:27
    CRC32 hash (test run) : A5E03CB0
    CRC32 hash : A5E03CB0
    CRC32 hash (skip zero) : 9864BA80
    AccurateRip signature : 72AF081D
    ->Accurately ripped! (confidence 5)
    Statistics
    Read error : 0
    Skipped (treated as error) : 0
    Edge jitter error (maybe fixed) : 0
    Atom jitter error (maybe fixed) : 0
    Drift error (maybe fixed) : 0
    Dropped bytes error (maybe fixed) : 0
    Duplicated bytes error (maybe fixed) : 0
    Inconsistency in error sectors : 0
    Track 23
    Filename : /Users/John/Transfers/Schubert - Schwanengesant; Beethoven (Matthew Goerne, Alfred Brendel) [FLAC]/23 Matthias Goerne, Alfred Brendel - Applause.flac
    Pre-gap length : 00:03:54
    CRC32 hash (test run) : 20004840
    CRC32 hash : 20004840
    CRC32 hash (skip zero) : F35B6697
    AccurateRip signature : 5F7E9A17
    ->Accurately ripped! (confidence 5)
    Statistics
    Read error : 0
    Skipped (treated as error) : 0
    Edge jitter error (maybe fixed) : 0
    Atom jitter error (maybe fixed) : 0
    Drift error (maybe fixed) : 0
    Dropped bytes error (maybe fixed) : 0
    Duplicated bytes error (maybe fixed) : 0
    Inconsistency in error sectors : 0
    Track 24
    Filename : /Users/John/Transfers/Schubert - Schwanengesant; Beethoven (Matthew Goerne, Alfred Brendel) [FLAC]/24 Matthias Goerne, Alfred Brendel - Die Taubenpost.flac
    Pre-gap length : 00:04:03
    CRC32 hash (test run) : 6D2DF4BA
    CRC32 hash : 6D2DF4BA
    CRC32 hash (skip zero) : D12AA557
    AccurateRip signature : 13E2C991
    ->Accurately ripped! (confidence 5)
    Statistics
    Read error : 0
    Skipped (treated as error) : 0
    Edge jitter error (maybe fixed) : 0
    Atom jitter error (maybe fixed) : 0
    Drift error (maybe fixed) : 0
    Dropped bytes error (maybe fixed) : 0
    Duplicated bytes error (maybe fixed) : 0
    Inconsistency in error sectors : 0
    Track 25
    Filename : /Users/John/Transfers/Schubert - Schwanengesant; Beethoven (Matthew Goerne, Alfred Brendel) [FLAC]/25 Matthias Goerne, Alfred Brendel - Applause.flac
    CRC32 hash (test run) : 3D0B08EE
    CRC32 hash : 3D0B08EE
    CRC32 hash (skip zero) : D6D5AEE3
    AccurateRip signature : 4D102925
    ->Accurately ripped! (confidence 5)
    Statistics
    Read error : 0
    Skipped (treated as error) : 0
    Edge jitter error (maybe fixed) : 0
    Atom jitter error (maybe fixed) : 0
    Drift error (maybe fixed) : 0
    Dropped bytes error (maybe fixed) : 0
    Duplicated bytes error (maybe fixed) : 0
    Inconsistency in error sectors : 0
    No errors occurred
    End of status report

    auCDtect Task Manager log / Отчёт auCDtect Task Manager

    -----------------------
    DON'T MODIFY THIS FILE
    -----------------------
    PERFORMER: auCDtect Task Manager, ver. 1.5.1RC3 build 1.5.1.4
    Copyright (c) 2008-2010 y-soft. All rights reserved
    ANALYZER: auCDtect: CD records authenticity detector, version 0.8.2
    Copyright (c) 2004 Oleg Berngardt. All rights reserved.
    Copyright (c) 2004 Alexander Djourik. All rights reserved.
    FILE: 22 - Schwanengesang, D. 957 - Nr. 13. Der Doppelgaenger.flac
    Size: 14036160 Hash: 0E31F397F2E1FFC1688D67EBFADBF295 Accuracy: -m0
    Conclusion: MPEG 100%
    Signature: F043A7F2268D18405E001CF2A5F9A3903718D1BA
    FILE: 21 - Schwanengesang, D. 957 - Nr. 12. Am Meer.flac
    Size: 15082379 Hash: 59473C6F6887C1715C69BFFA41562F3B Accuracy: -m0
    Conclusion: MPEG 100%
    Signature: 88A7713BE97C6BDC89105C21C8898EE3BE4DC225
    FILE: 20 - Schwanengesang, D. 957 - Nr. 11. Die Stadt.flac
    Size: 10182448 Hash: 2CECCB5F6C5AB5CBAF0F5021521FC4C3 Accuracy: -m0
    Conclusion: MPEG 100%
    Signature: DE75B62D4D16031C6049018C69F2AC4C3615EA54
    FILE: 19 - Schwanengesang, D. 957 - Nr. 10. Das Fischermaedchen.flac
    Size: 7894134 Hash: 7AE90E3B497D5BA33CCA0A9B23CCC2CE Accuracy: -m0
    Conclusion: MPEG 100%
    Signature: 92D4845C5A02B3CD40FE6D9CF17B12E04669B5E1
    FILE: 18 - Schwanengesang, D. 957 - Nr. 9. Ihr Bild.flac
    Size: 10352048 Hash: 6FDD122041B541E78E16B4D9DA8CE147 Accuracy: -m0
    Conclusion: MPEG 100%
    Signature: DDB6025D80B342F3E81B44FC556327B82CFE442B
    FILE: 17 - Schwanengesang, D. 957 - Nr. 8. Der Atlas.flac
    Size: 9645191 Hash: 87E39734254E601A080F11D04FCBC0DA Accuracy: -m0
    Conclusion: CDDA 49%
    Signature: 5BF59D18E53CC2B7036AE879DD71D807A675AD74
    FILE: 16 - Schwanengesang, D. 957 - Nr. 7. Abschied.flac
    Size: 16947753 Hash: 1C026E5AF459AECA03920D4432C738C0 Accuracy: -m0
    Conclusion: MPEG 100%
    Signature: D2FC19E37F663A56DD99671CCF28EE86D95B151F
    FILE: 15 - Schwanengesang, D. 957 - Nr. 6. In der Ferne.flac
    Size: 21288144 Hash: F6A2C3127767C75271AE44A27A943F14 Accuracy: -m0
    Conclusion: MPEG 100%
    Signature: C1B3430F3253DB2DD95999AB72CE6B5A5DF44CFC
    FILE: 14 - Herbst, D. 945.flac
    Size: 14674613 Hash: C988EC4BB2CAD0B6B2C5485846B0EB64 Accuracy: -m0
    Conclusion: MPEG 100%
    Signature: 401DDE9DA8B98479391ABE5065177D8C3C97DA59
    FILE: 13 - Schwanengesang, D. 957 - Nr. 5. Aufenthalt.flac
    Size: 11658744 Hash: D9D880E27C117931AE2B9376023256C7 Accuracy: -m0
    Conclusion: MPEG 90%
    Signature: 5BB78AA81AB17CA91CA41BCF295BEC4BBE25068C
    FILE: 12 - Schwanengesang, D. 957 - Nr. 4. Staendchen.flac
    Size: 13308099 Hash: E7F7233E5684B6FE0DE7B2AB41944A2A Accuracy: -m0
    Conclusion: MPEG 100%
    Signature: 61CED7328F6EC28B0356AB8779BAE369F65A0E8E
    FILE: 11 - Schwanengesang, D. 957 - Nr. 3. Fruehlingssehnsucht.flac
    Size: 14021707 Hash: 2D7BBDCFFFED7B1147A3663D2DC1CE9E Accuracy: -m0
    Conclusion: MPEG 89%
    Signature: 85D47C49D51704B3732AE4989899193A01293E34
    FILE: 10 - Schwanengesang, D. 957 - Nr. 2. Kriegers Ahnung.flac
    Size: 17297711 Hash: 5B66778993CC1C7ADFC8AA762F007A38 Accuracy: -m0
    Conclusion: MPEG 100%
    Signature: B858D3737BF4D3704CF6542320A5308623BD19A2
    FILE: 09 - Schwanengesang, D. 957 - Nr. 1. Liebesbotschaft.flac
    Size: 11264861 Hash: 510F3F2E9447FE6C7D3A203072E02791 Accuracy: -m0
    Conclusion: MPEG 99%
    Signature: 0C53C15B92279A5C8B563E88D81F1C3DC562095C
    FILE: 08 - Applause.flac
    Size: 1236469 Hash: F963F2C1EAB8D6CE34AEC3F2B14D8162 Accuracy: -m0
    Conclusion: CDDA 100%
    Signature: 010981A4CEA50F10DC92308EA4C739E306D9DFEF
    FILE: 07 - An die ferne Geliebte, Op. 98 - Nr. 6. Nimm sie hin denn, diese Lieder.flac
    Size: 15087150 Hash: DB27E76C3AFFD69846804CABF1642623 Accuracy: -m0
    Conclusion: MPEG 100%
    Signature: BE2B0C33DC87D72A68FC9A7935BD36F9985B21B0
    FILE: 06 - An die ferne Geliebte, Op. 98 - Nr. 5. Es kehret der Maien.flac
    Size: 9526939 Hash: 97C9246BB0CCF688EC45CAA986A8C0EC Accuracy: -m0
    Conclusion: MPEG 100%
    Signature: F2E76F72F9BD7D528C1C04471334B81FEC26F4FE
    FILE: 05 - An die ferne Geliebte, Op. 98 - Nr. 4. Diese Wolken in den Hohen.flac
    Size: 4832986 Hash: BBFF928171F2C85B43EA6401CB6EF1C2 Accuracy: -m0
    Conclusion: MPEG 100%
    Signature: B256B602BD3AE194A1EEBB349D115DC99BDCE67E
    FILE: 04 - An die ferne Geliebte, Op. 98 - Nr. 3. Leichte Segler in den Hohen.flac
    Size: 6565953 Hash: 15B5B54AAC0850C013E8F8CCF6B2B291 Accuracy: -m0
    Conclusion: MPEG 99%
    Signature: B89EA19704D2AF4C7574EB7BCAED819438684164
    FILE: 03 - An die ferne Geliebte, Op. 98 - Nr. 2. Wo die Berge so blau.flac
    Size: 6283775 Hash: FF89F34C1A0B0E791F563D40E8921B41 Accuracy: -m0
    Conclusion: MPEG 100%
    Signature: 423E14E8B49590CEF1FC37098EFDC70CC3615A3D
    FILE: 02 - An die ferne Geliebte, Op. 98 - Nr. 1. Auf dem Huegel sitz' ich.flac
    Size: 9632785 Hash: 3488CF00901FF30204E1CFAB4A54BD62 Accuracy: -m0
    Conclusion: MPEG 100%
    Signature: AD8F328A040D37E7EDB97B87F9781A830A63CD4A
    FILE: 01 - Applause.flac
    Size: 698744 Hash: 15C016A26A128D249DE0DBE3373CE11D Accuracy: -m0
    Conclusion: CDDA 99%
    Signature: D360062D7AE4067D73FA45343EC1F550FC21ACB0
    FILE: 25 - Applause.flac
    Size: 2429812 Hash: 25491C1A5F23214116DD3D7DD905252A Accuracy: -m0
    Conclusion: CDDA 99%
    Signature: FECF0F9D7D99CE8B75CBEC5D657A5738D2B324A3
    FILE: 24 - Schwanengesang, D. 957 - Nr. 14. Die Taubenpost.flac
    Size: 16323630 Hash: 02587C8E672F0B28888E9E2426D7CAFE Accuracy: -m0
    Conclusion: MPEG 99%
    Signature: 24C7170976AD3DEA0D6A2CA6B051809114D85400
    FILE: 23 - Applause.flac
    Size: 2533449 Hash: A06193C0648187CDEC514DF0B1F265CB Accuracy: -m0
    Conclusion: CDDA 100%
    Signature: B6AD9DF8E262A2453146191B2482588710A11B8E

    CUETools log / Отчёт CUETools

    [CUETools log; Date: 08.11.2013 17:34:47; Version: 2.1.4]
    [AccurateRip ID: 003b8dda-04650c3b-5610ed19] found.
    Track [ CRC | V2 ] Status
    01 [52fbd755|bd87b338] (06+11/17) Accurately ripped
    02 [69c536a1|9cfaf3a1] (07+11/18) Accurately ripped
    03 [aecbe2d8|732faa4e] (07+11/18) Accurately ripped
    04 [412b0452|093b90cd] (07+11/18) Accurately ripped
    05 [2495f2be|868f81f6] (07+11/18) Accurately ripped
    06 [7575e5e8|75b703b8] (07+11/18) Accurately ripped
    07 [e5474913|32556187] (07+11/18) Accurately ripped
    08 [8f74ef04|6b080a5d] (07+11/18) Accurately ripped
    09 [dca87542|17c12da9] (07+11/18) Accurately ripped
    10 [6a36abcf|bc71928e] (07+11/18) Accurately ripped
    11 [a95db2ba|6f3a18f1] (07+11/18) Accurately ripped
    12 [7b02a997|e11ef619] (07+11/18) Accurately ripped
    13 [a4b82f66|8cefa8d3] (07+11/18) Accurately ripped
    14 [db71a136|6a2e85e0] (07+11/18) Accurately ripped
    15 [b83e20fc|63e6df3a] (07+11/18) Accurately ripped
    16 [420866fc|dc044e8c] (07+11/18) Accurately ripped
    17 [4ec5a9c9|acd21337] (07+11/18) Accurately ripped
    18 [fa3215e1|e80f1d9b] (07+11/18) Accurately ripped
    19 [2c824412|6aebac0a] (07+10/17) Accurately ripped
    20 [4bb4822f|b2550eaf] (07+10/17) Accurately ripped
    21 [710138aa|25abe2db] (07+10/17) Accurately ripped
    22 [72af081d|3b3ff6ff] (07+10/17) Accurately ripped
    23 [5f7e9a17|6e81ed8e] (07+10/17) Accurately ripped
    24 [13e2c991|7984ff0b] (07+10/17) Accurately ripped
    25 [4d102925|1966d947] (07+10/17) Accurately ripped
    Track Peak [ CRC32 ] [W/O NULL]
    -- 97,4 [C1C82A6E] [D31BD351]
    01 10,6 [E97DABB6] [7D879B31]
    02 38,2 [7D5AED93] [815A0C54]
    03 32,6 [799BE89D] [500392B4]
    04 29,9 [C946A645] [34D99B1B]
    05 38,3 [360F8A67] [506A3272]
    06 44,0 [3E1A92F7] [8FC44A14]
    07 53,1 [D01A613F] [FC00117D]
    08 22,2 [FB40534D] [49181EAB]
    09 33,5 [D1477F09] [9ED6CDA9]
    10 60,8 [74DAE2D7] [C8A28BE8]
    11 50,5 [18BA33F3] [3A9E5E63]
    12 47,7 [C099DA5B] [E81EA261]
    13 56,2 [E0D4F0E5] [46B2F4FC]
    14 46,8 [4464728D] [570F3301]
    15 45,2 [7D0CEEC2] [0329ABA4]
    16 35,3 [ED66CDB3] [F430D148]
    17 97,4 [96666A15] [DF8B1831]
    18 30,3 [9A619CCE] [833A9FA9]
    19 25,2 [6B81D159] [CA48B437]
    20 38,7 [E94D761E] [1B85AF3F]
    21 33,5 [55A3DF1F] [6FB33542]
    22 54,7 [A5E03CB0] [9864BA80]
    23 29,4 [20004840] [F35B6697]
    24 30,8 [6D2DF4BA] [D12AA557]
    25 19,2 [3D0B08EE] [D6D5AEE3]

    CUE sheet

    TITLE "Ludwig van Beethoven: «An die ferne Geliebte»; Franz Schubert: «Schwanengesang»"
    PERFORMER "Matthias Goerne"
    CATALOG 0028947560111
    REM GENRE Classical
    REM DISCID 5610ED19
    FILE "01 - Applause.flac" WAVE
    TRACK 01 AUDIO
    TITLE "Applause"
    PERFORMER "Matthias Goerne (baritone), Alfred Brendel (piano)"
    REM DATE 2003
    INDEX 01 00:00:00
    FILE "02 - An die ferne Geliebte, Op. 98 - Nr. 1. Auf dem Huegel sitz' ich.flac" WAVE
    TRACK 02 AUDIO
    TITLE "«An die ferne Geliebte», Op. 98: Nr. 1. «Auf dem Hügel sitz' ich»"
    PERFORMER "Matthias Goerne (baritone), Alfred Brendel (piano)"
    REM DATE 2003
    INDEX 01 00:00:00
    FILE "03 - An die ferne Geliebte, Op. 98 - Nr. 2. Wo die Berge so blau.flac" WAVE
    TRACK 03 AUDIO
    TITLE "«An die ferne Geliebte», Op. 98: Nr. 2. «Wo die Berge so blau»"
    PERFORMER "Matthias Goerne (baritone), Alfred Brendel (piano)"
    REM DATE 2003
    INDEX 01 00:00:00
    FILE "04 - An die ferne Geliebte, Op. 98 - Nr. 3. Leichte Segler in den Hohen.flac" WAVE
    TRACK 04 AUDIO
    TITLE "«An die ferne Geliebte», Op. 98: Nr. 3. «Leichte Segler in den Hohen»"
    PERFORMER "Matthias Goerne (baritone), Alfred Brendel (piano)"
    REM DATE 2003
    INDEX 01 00:00:00
    FILE "05 - An die ferne Geliebte, Op. 98 - Nr. 4. Diese Wolken in den Hohen.flac" WAVE
    TRACK 05 AUDIO
    TITLE "«An die ferne Geliebte», Op. 98: Nr. 4. «Diese Wolken in den Hohen»"
    PERFORMER "Matthias Goerne (baritone), Alfred Brendel (piano)"
    REM DATE 2003
    INDEX 01 00:00:00
    FILE "06 - An die ferne Geliebte, Op. 98 - Nr. 5. Es kehret der Maien.flac" WAVE
    TRACK 06 AUDIO
    TITLE "«An die ferne Geliebte», Op. 98: Nr. 5. «Es kehret der Maien»"
    PERFORMER "Matthias Goerne (baritone), Alfred Brendel (piano)"
    REM DATE 2003
    INDEX 01 00:00:00
    FILE "07 - An die ferne Geliebte, Op. 98 - Nr. 6. Nimm sie hin denn, diese Lieder.flac" WAVE
    TRACK 07 AUDIO
    TITLE "«An die ferne Geliebte», Op. 98: Nr. 6. «Nimm sie hin denn, diese Lieder»"
    PERFORMER "Matthias Goerne (baritone), Alfred Brendel (piano)"
    REM DATE 2003
    INDEX 01 00:00:00
    FILE "08 - Applause.flac" WAVE
    TRACK 08 AUDIO
    TITLE "Applause"
    PERFORMER "Matthias Goerne (baritone), Alfred Brendel (piano)"
    REM DATE 2003
    INDEX 01 00:00:00
    TRACK 09 AUDIO
    TITLE "«Schwanengesang», D. 957: Nr. 1. «Liebesbotschaft»"
    PERFORMER "Matthias Goerne (baritone), Alfred Brendel (piano)"
    REM DATE 2003
    INDEX 00 00:12:50
    FILE "09 - Schwanengesang, D. 957 - Nr. 1. Liebesbotschaft.flac" WAVE
    INDEX 01 00:00:00
    TRACK 10 AUDIO
    TITLE "«Schwanengesang», D. 957: Nr. 2. «Kriegers Ahnung»"
    PERFORMER "Matthias Goerne (baritone), Alfred Brendel (piano)"
    REM DATE 2003
    INDEX 00 03:08:07
    FILE "10 - Schwanengesang, D. 957 - Nr. 2. Kriegers Ahnung.flac" WAVE
    INDEX 01 00:00:00
    TRACK 11 AUDIO
    TITLE "«Schwanengesang», D. 957: Nr. 3. «Frühlingssehnsucht»"
    PERFORMER "Matthias Goerne (baritone), Alfred Brendel (piano)"
    REM DATE 2003
    INDEX 00 04:45:48
    FILE "11 - Schwanengesang, D. 957 - Nr. 3. Fruehlingssehnsucht.flac" WAVE
    INDEX 01 00:00:00
    TRACK 12 AUDIO
    TITLE "«Schwanengesang», D. 957: Nr. 4. «Ständchen»"
    PERFORMER "Matthias Goerne (baritone), Alfred Brendel (piano)"
    REM DATE 2003
    INDEX 00 03:17:16
    FILE "12 - Schwanengesang, D. 957 - Nr. 4. Staendchen.flac" WAVE
    INDEX 01 00:00:00
    TRACK 13 AUDIO
    TITLE "«Schwanengesang», D. 957: Nr. 5. «Aufenthalt»"
    PERFORMER "Matthias Goerne (baritone), Alfred Brendel (piano)"
    REM DATE 2003
    INDEX 00 03:44:12
    FILE "13 - Schwanengesang, D. 957 - Nr. 5. Aufenthalt.flac" WAVE
    INDEX 01 00:00:00
    TRACK 14 AUDIO
    TITLE "«Herbst», D. 945"
    PERFORMER "Matthias Goerne (baritone), Alfred Brendel (piano)"
    REM DATE 2003
    INDEX 00 02:48:43
    FILE "14 - Herbst, D. 945.flac" WAVE
    INDEX 01 00:00:00
    TRACK 15 AUDIO
    TITLE "«Schwanengesang», D. 957: Nr. 6. «In der Ferne»"
    PERFORMER "Matthias Goerne (baritone), Alfred Brendel (piano)"
    REM DATE 2003
    INDEX 00 03:55:27
    FILE "15 - Schwanengesang, D. 957 - Nr. 6. In der Ferne.flac" WAVE
    INDEX 01 00:00:00
    TRACK 16 AUDIO
    TITLE "«Schwanengesang», D. 957: Nr. 7. «Abschied»"
    PERFORMER "Matthias Goerne (baritone), Alfred Brendel (piano)"
    REM DATE 2003
    INDEX 00 05:51:10
    FILE "16 - Schwanengesang, D. 957 - Nr. 7. Abschied.flac" WAVE
    INDEX 01 00:00:00
    TRACK 17 AUDIO
    TITLE "«Schwanengesang», D. 957: Nr. 8. «Der Atlas»"
    PERFORMER "Matthias Goerne (baritone), Alfred Brendel (piano)"
    REM DATE 2003
    INDEX 00 04:26:68
    FILE "17 - Schwanengesang, D. 957 - Nr. 8. Der Atlas.flac" WAVE
    INDEX 01 00:00:00
    TRACK 18 AUDIO
    TITLE "«Schwanengesang», D. 957: Nr. 9. «Ihr Bild»"
    PERFORMER "Matthias Goerne (baritone), Alfred Brendel (piano)"
    REM DATE 2003
    INDEX 00 02:10:35
    FILE "18 - Schwanengesang, D. 957 - Nr. 9. Ihr Bild.flac" WAVE
    INDEX 01 00:00:00
    TRACK 19 AUDIO
    TITLE "«Schwanengesang», D. 957: Nr. 10. «Das Fischermädchen»"
    PERFORMER "Matthias Goerne (baritone), Alfred Brendel (piano)"
    REM DATE 2003
    INDEX 00 03:21:43
    FILE "19 - Schwanengesang, D. 957 - Nr. 10. Das Fischermaedchen.flac" WAVE
    INDEX 01 00:00:00
    TRACK 20 AUDIO
    TITLE "«Schwanengesang», D. 957: Nr. 11. «Die Stadt»"
    PERFORMER "Matthias Goerne (baritone), Alfred Brendel (piano)"
    REM DATE 2003
    INDEX 00 02:09:61
    FILE "20 - Schwanengesang, D. 957 - Nr. 11. Die Stadt.flac" WAVE
    INDEX 01 00:00:00
    TRACK 21 AUDIO
    TITLE "«Schwanengesang», D. 957: Nr. 12. «Am Meer»"
    PERFORMER "Matthias Goerne (baritone), Alfred Brendel (piano)"
    REM DATE 2003
    INDEX 00 03:06:74
    FILE "21 - Schwanengesang, D. 957 - Nr. 12. Am Meer.flac" WAVE
    INDEX 01 00:00:00
    TRACK 22 AUDIO
    TITLE "«Schwanengesang», D. 957: Nr. 13. «Der Doppelgänger»"
    PERFORMER "Matthias Goerne (baritone), Alfred Brendel (piano)"
    REM DATE 2003
    INDEX 00 04:39:55
    FILE "22 - Schwanengesang, D. 957 - Nr. 13. Der Doppelgaenger.flac" WAVE
    INDEX 01 00:00:00
    TRACK 23 AUDIO
    TITLE "Applause"
    PERFORMER "Matthias Goerne (baritone), Alfred Brendel (piano)"
    REM DATE 2003
    INDEX 00 04:23:07
    FILE "23 - Applause.flac" WAVE
    INDEX 01 00:00:00
    TRACK 24 AUDIO
    TITLE "«Schwanengesang», D. 957: Nr. 14. «Die Taubenpost»"
    PERFORMER "Matthias Goerne (baritone), Alfred Brendel (piano)"
    REM DATE 2003
    INDEX 00 00:26:48
    FILE "24 - Schwanengesang, D. 957 - Nr. 14. Die Taubenpost.flac" WAVE
    INDEX 01 00:00:00
    FILE "25 - Applause.flac" WAVE
    TRACK 25 AUDIO
    TITLE "Applause"
    PERFORMER "Matthias Goerne (baritone), Alfred Brendel (piano)"
    REM DATE 2003
    INDEX 01 00:00:00
    -
    Ludwig van Beethoven — каталог раздач на rutracker.orgFranz Schubert — каталог раздач на rutracker.orgВсе мои раздачи / All my releases



  • Показать сообщения:    

    Текущее время: 05-Дек 15:30

    Часовой пояс: UTC + 3


    Вы не можете начинать темы
    Вы не можете отвечать на сообщения
    Вы не можете редактировать свои сообщения
    Вы не можете удалять свои сообщения
    Вы не можете голосовать в опросах
    Вы не можете прикреплять файлы к сообщениям
    Вы не можете скачивать файлы