(Classical / Vocal) Matthias Goerne Schubert Edition, Volume 3: «Die schone Mullerin» (Matthias Goerne, Christoph Eschenbach, 2008) - 2009, FLAC (tracks+.cue) lossless


 

[Цитировать]

Franz Schubert | Франц Шуберт
(1797–1828)



Matthias Goerne Schubert Edition
Volume 3. «Die schöne Müllerin»



Matthias Goerne baritoneChristoph Eschenbach piano


Жанр: Classical / Vocal
Дата записи: Teldex Studio, Berlin, September 2008
Формат записи: DDD, Stereo
Год издания диска: 2009
Издатель (лейбл): Harmonia Mundi
Номер по каталогу: HMC 901995
Аудиокодек: FLAC
Тип рипа: tracks+.cue
Битрейт аудио: lossless
Продолжительность: 1:11:12
Наличие сканов в содержимом раздачи: да
Источник: What.CD
Релизёр: deodac

-Tracklist / Треклист
«Die schöne Müllerin», D. 795 - 1:11:12
Nr. 1. «Das Wandern» - 2:42
  • Nr. 2. «Wohin?» - 2:43
  • Nr. 3. «Halt!» - 1:27
  • Nr. 4. «Danksagung an den Bach» - 2:19
  • Nr. 5. «Am Feierabend» - 2:07
  • Nr. 6. «Der Neugerige» - 5:20
  • Nr. 7. «Ungeduld» - 2:33
  • Nr. 8. «Morgengruß» - 5:08
  • Nr. 9. «Des Müllers Blumen» - 3:35
  • Nr. 10. «Tränenregen» - 4:49
  • Nr. 11. «Mein!» - 2:16
  • Nr. 12. «Pause» - 5:29
  • Nr. 13. «Mit dem grünen Lautenbande» - 1:50
  • Nr. 14. «Der Jäger» - 1:09
  • Nr. 15. «Eifersucht und Stolz» - 1:31
  • Nr. 16. «Die liebe Farbe» - 5:12
  • Nr. 17. «Die böse Farbe» - 2:03
  • Nr. 18. «Trockne Blumen» - 4:53
  • Nr. 19. «Der Müller und der Bach» - 4:47
  • Nr. 20. «Des Baches Wiegenlied» - 9:18-

    XLD log / Отчёт XLD

    X Lossless Decoder version 20120407 (140.0)
    XLD extraction logfile from 2012-05-01 13:17:31 +0200
    Matthias Goerne, Christoph Eschenbach / Schubert - Die Schöne Müllerin
    Used drive : MATSHITA DVD-R UJ-898 (revision HA07)
    Ripper mode : XLD Secure Ripper
    Disable audio cache : OK for the drive with a cache less than 1375KiB
    Make use of C2 pointers : NO
    Read offset correction : 102
    Max retry count : 100
    Gap status : Analyzed, Appended
    TOC of the extracted CD
    Track | Start | Length | Start sector | End sector
    ---------------------------------------------------------
    1 | 00:00:00 | 02:42:02 | 0 | 12151
    2 | 02:42:02 | 02:43:20 | 12152 | 24396
    3 | 05:25:22 | 01:26:67 | 24397 | 30913
    4 | 06:52:14 | 02:19:18 | 30914 | 41356
    5 | 09:11:32 | 02:07:17 | 41357 | 50898
    6 | 11:18:49 | 05:19:63 | 50899 | 74886
    7 | 16:38:37 | 02:33:16 | 74887 | 86377
    8 | 19:11:53 | 05:07:67 | 86378 | 109469
    9 | 24:19:45 | 03:34:66 | 109470 | 125585
    10 | 27:54:36 | 04:49:26 | 125586 | 147286
    11 | 32:43:62 | 02:15:41 | 147287 | 157452
    12 | 34:59:28 | 05:29:11 | 157453 | 182138
    13 | 40:28:39 | 01:49:38 | 182139 | 190351
    14 | 42:18:02 | 01:09:17 | 190352 | 195543
    15 | 43:27:19 | 01:30:73 | 195544 | 202366
    16 | 44:58:17 | 05:12:15 | 202367 | 225781
    17 | 50:10:32 | 02:02:73 | 225782 | 235004
    18 | 52:13:30 | 04:53:34 | 235005 | 257013
    19 | 57:06:64 | 04:47:20 | 257014 | 278558
    20 | 61:54:09 | 09:18:12 | 278559 | 320420
    AccurateRip Summary
    Track 01 : OK (confidence 11)
    Track 02 : OK (confidence 11)
    Track 03 : OK (confidence 10)
    Track 04 : OK (confidence 11)
    Track 05 : OK (confidence 11)
    Track 06 : OK (confidence 11)
    Track 07 : OK (confidence 11)
    Track 08 : OK (confidence 11)
    Track 09 : OK (confidence 11)
    Track 10 : OK (confidence 11)
    Track 11 : OK (confidence 11)
    Track 12 : OK (confidence 11)
    Track 13 : OK (confidence 11)
    Track 14 : OK (confidence 11)
    Track 15 : OK (confidence 11)
    Track 16 : OK (confidence 11)
    Track 17 : OK (confidence 11)
    Track 18 : OK (confidence 11)
    Track 19 : OK (confidence 11)
    Track 20 : OK (confidence 11)
    ->All tracks accurately ripped.
    All Tracks
    Album gain : 1.93 dB
    Peak : 0.988922
    Statistics
    Read error : 0
    Jitter error (maybe fixed) : 0
    Retry sector count : 0
    Damaged sector count : 0
    Track 01
    Filename : /Volumes/MUSIC/T/Schubert - Die Schöene Müllerin (2009) [FLAC] {HMC 901995}/01 - Franz Schubert - Die Schöne Müllerin, Op.25 D.795 - I. Das Wandern.flac
    Pre-gap length : 00:02:00
    Track gain : 1.89 dB
    Peak : 0.774445
    CRC32 hash (test run) : A89466CE
    CRC32 hash : A89466CE
    CRC32 hash (skip zero) : 4B6F9251
    AccurateRip signature : 65253C4A
    ->Accurately ripped! (confidence 11)
    Statistics
    Read error : 0
    Jitter error (maybe fixed) : 0
    Retry sector count : 0
    Damaged sector count : 0
    Track 02
    Filename : /Volumes/MUSIC/T/Schubert - Die Schöene Müllerin (2009) [FLAC] {HMC 901995}/02 - Franz Schubert - Die Schöne Müllerin, Op.25 D.795 - II. Wohin.flac
    Track gain : 4.85 dB
    Peak : 0.699036
    CRC32 hash (test run) : B1C133CA
    CRC32 hash : B1C133CA
    CRC32 hash (skip zero) : 84B20BE7
    AccurateRip signature : 80A05BC4
    ->Accurately ripped! (confidence 11)
    Statistics
    Read error : 0
    Jitter error (maybe fixed) : 0
    Retry sector count : 0
    Damaged sector count : 0
    Track 03
    Filename : /Volumes/MUSIC/T/Schubert - Die Schöene Müllerin (2009) [FLAC] {HMC 901995}/03 - Franz Schubert - Die Schöne Müllerin, Op.25 D.795 - III. Halt.flac
    Track gain : -0.58 dB
    Peak : 0.874634
    CRC32 hash (test run) : 629BBF04
    CRC32 hash : 629BBF04
    CRC32 hash (skip zero) : 3E0E2D7E
    AccurateRip signature : C212C8F5
    ->Accurately ripped! (confidence 10)
    Statistics
    Read error : 0
    Jitter error (maybe fixed) : 0
    Retry sector count : 0
    Damaged sector count : 0
    Track 04
    Filename : /Volumes/MUSIC/T/Schubert - Die Schöene Müllerin (2009) [FLAC] {HMC 901995}/04 - Franz Schubert - Die Schöne Müllerin, Op.25 D.795 - IV. Danksagung an den Bach.flac
    Track gain : 3.45 dB
    Peak : 0.638428
    CRC32 hash (test run) : 1B7EA796
    CRC32 hash : 1B7EA796
    CRC32 hash (skip zero) : ABC61ACB
    AccurateRip signature : A59B010A
    ->Accurately ripped! (confidence 11)
    Statistics
    Read error : 0
    Jitter error (maybe fixed) : 0
    Retry sector count : 0
    Damaged sector count : 0
    Track 05
    Filename : /Volumes/MUSIC/T/Schubert - Die Schöene Müllerin (2009) [FLAC] {HMC 901995}/05 - Franz Schubert - Die Schöne Müllerin, Op.25 D.795 - V. Am Feierabend.flac
    Track gain : -3.05 dB
    Peak : 0.988892
    CRC32 hash (test run) : 36A57065
    CRC32 hash : 36A57065
    CRC32 hash (skip zero) : 16505179
    AccurateRip signature : E8B043D2
    ->Accurately ripped! (confidence 11)
    Statistics
    Read error : 0
    Jitter error (maybe fixed) : 0
    Retry sector count : 0
    Damaged sector count : 0
    Track 06
    Filename : /Volumes/MUSIC/T/Schubert - Die Schöene Müllerin (2009) [FLAC] {HMC 901995}/06 - Franz Schubert - Die Schöne Müllerin, Op.25 D.795 - VI. Der Neugierige.flac
    Track gain : 9.81 dB
    Peak : 0.358002
    CRC32 hash (test run) : C1094FCA
    CRC32 hash : C1094FCA
    CRC32 hash (skip zero) : 2F5C4A4E
    AccurateRip signature : 7E300A88
    ->Accurately ripped! (confidence 11)
    Statistics
    Read error : 0
    Jitter error (maybe fixed) : 0
    Retry sector count : 0
    Damaged sector count : 0
    Track 07
    Filename : /Volumes/MUSIC/T/Schubert - Die Schöene Müllerin (2009) [FLAC] {HMC 901995}/07 - Franz Schubert - Die Schöne Müllerin, Op.25 D.795 - VII. Ungeduld.flac
    Track gain : -2.08 dB
    Peak : 0.988861
    CRC32 hash (test run) : 6A827075
    CRC32 hash : 6A827075
    CRC32 hash (skip zero) : 4F1D641A
    AccurateRip signature : F7FCED8B
    ->Accurately ripped! (confidence 11)
    Statistics
    Read error : 0
    Jitter error (maybe fixed) : 0
    Retry sector count : 0
    Damaged sector count : 0
    Track 08
    Filename : /Volumes/MUSIC/T/Schubert - Die Schöene Müllerin (2009) [FLAC] {HMC 901995}/08 - Franz Schubert - Die Schöne Müllerin, Op.25 D.795 - VIII. Morgengruss.flac
    Track gain : 9.29 dB
    Peak : 0.539551
    CRC32 hash (test run) : 807E1EC8
    CRC32 hash : 807E1EC8
    CRC32 hash (skip zero) : F7774C5B
    AccurateRip signature : A0DF24CF
    ->Accurately ripped! (confidence 11)
    Statistics
    Read error : 0
    Jitter error (maybe fixed) : 0
    Retry sector count : 0
    Damaged sector count : 0
    Track 09
    Filename : /Volumes/MUSIC/T/Schubert - Die Schöene Müllerin (2009) [FLAC] {HMC 901995}/09 - Franz Schubert - Die Schöne Müllerin, Op.25 D.795 - IX. Des Muellers Blumen.flac
    Track gain : 8.52 dB
    Peak : 0.295197
    CRC32 hash (test run) : 81637A50
    CRC32 hash : 81637A50
    CRC32 hash (skip zero) : 61472380
    AccurateRip signature : 72E0C822
    ->Accurately ripped! (confidence 11)
    Statistics
    Read error : 0
    Jitter error (maybe fixed) : 0
    Retry sector count : 0
    Damaged sector count : 0
    Track 10
    Filename : /Volumes/MUSIC/T/Schubert - Die Schöene Müllerin (2009) [FLAC] {HMC 901995}/10 - Franz Schubert - Die Schöne Müllerin, Op.25 D.795 - X. Traenenregen.flac
    Track gain : 8.63 dB
    Peak : 0.481964
    CRC32 hash (test run) : B5579662
    CRC32 hash : B5579662
    CRC32 hash (skip zero) : 97227654
    AccurateRip signature : 864897FA
    ->Accurately ripped! (confidence 11)
    Statistics
    Read error : 0
    Jitter error (maybe fixed) : 0
    Retry sector count : 0
    Damaged sector count : 0
    Track 11
    Filename : /Volumes/MUSIC/T/Schubert - Die Schöene Müllerin (2009) [FLAC] {HMC 901995}/11 - Franz Schubert - Die Schöne Müllerin, Op.25 D.795 - XI. Mein.flac
    Track gain : -3.66 dB
    Peak : 0.988892
    CRC32 hash (test run) : 7DC0C580
    CRC32 hash : 7DC0C580
    CRC32 hash (skip zero) : C314C927
    AccurateRip signature : C548FB72
    ->Accurately ripped! (confidence 11)
    Statistics
    Read error : 0
    Jitter error (maybe fixed) : 0
    Retry sector count : 0
    Damaged sector count : 0
    Track 12
    Filename : /Volumes/MUSIC/T/Schubert - Die Schöene Müllerin (2009) [FLAC] {HMC 901995}/12 - Franz Schubert - Die Schöne Müllerin, Op.25 D.795 - XII. Pause.flac
    Track gain : 7.08 dB
    Peak : 0.949951
    CRC32 hash (test run) : 41776BF6
    CRC32 hash : 41776BF6
    CRC32 hash (skip zero) : E107B58B
    AccurateRip signature : EFE85D1D
    ->Accurately ripped! (confidence 11)
    Statistics
    Read error : 0
    Jitter error (maybe fixed) : 0
    Retry sector count : 0
    Damaged sector count : 0
    Track 13
    Filename : /Volumes/MUSIC/T/Schubert - Die Schöene Müllerin (2009) [FLAC] {HMC 901995}/13 - Franz Schubert - Die Schöne Müllerin, Op.25 D.795 - XIII. Mit dem gruenen Lautenbande.flac
    Track gain : 0.33 dB
    Peak : 0.969696
    CRC32 hash (test run) : 8392F7AC
    CRC32 hash : 8392F7AC
    CRC32 hash (skip zero) : F0337B03
    AccurateRip signature : F5887A78
    ->Accurately ripped! (confidence 11)
    Statistics
    Read error : 0
    Jitter error (maybe fixed) : 0
    Retry sector count : 0
    Damaged sector count : 0
    Track 14
    Filename : /Volumes/MUSIC/T/Schubert - Die Schöene Müllerin (2009) [FLAC] {HMC 901995}/14 - Franz Schubert - Die Schöne Müllerin, Op.25 D.795 - XIV. Der Jaeger.flac
    Track gain : -2.47 dB
    Peak : 0.988708
    CRC32 hash (test run) : B76C8D15
    CRC32 hash : B76C8D15
    CRC32 hash (skip zero) : C07C6158
    AccurateRip signature : BA9F32AD
    ->Accurately ripped! (confidence 11)
    Statistics
    Read error : 0
    Jitter error (maybe fixed) : 0
    Retry sector count : 0
    Damaged sector count : 0
    Track 15
    Filename : /Volumes/MUSIC/T/Schubert - Die Schöene Müllerin (2009) [FLAC] {HMC 901995}/15 - Franz Schubert - Die Schöne Müllerin, Op.25 D.795 - XV. Eifersucht und Stolz.flac
    Track gain : -2.37 dB
    Peak : 0.988739
    CRC32 hash (test run) : 3060E792
    CRC32 hash : 3060E792
    CRC32 hash (skip zero) : 402430DF
    AccurateRip signature : 21D63803
    ->Accurately ripped! (confidence 11)
    Statistics
    Read error : 0
    Jitter error (maybe fixed) : 0
    Retry sector count : 0
    Damaged sector count : 0
    Track 16
    Filename : /Volumes/MUSIC/T/Schubert - Die Schöene Müllerin (2009) [FLAC] {HMC 901995}/16 - Franz Schubert - Die Schöne Müllerin, Op.25 D.795 - XVI. Die liebe Farbe.flac
    Track gain : 4.81 dB
    Peak : 0.988770
    CRC32 hash (test run) : 4FAF8882
    CRC32 hash : 4FAF8882
    CRC32 hash (skip zero) : 1FD469D5
    AccurateRip signature : 53F97F76
    ->Accurately ripped! (confidence 11)
    Statistics
    Read error : 0
    Jitter error (maybe fixed) : 0
    Retry sector count : 0
    Damaged sector count : 0
    Track 17
    Filename : /Volumes/MUSIC/T/Schubert - Die Schöene Müllerin (2009) [FLAC] {HMC 901995}/17 - Franz Schubert - Die Schöne Müllerin, Op.25 D.795 - XVII. Die boese Farbe.flac
    Track gain : -3.96 dB
    Peak : 0.988922
    CRC32 hash (test run) : 0E1B00E5
    CRC32 hash : 0E1B00E5
    CRC32 hash (skip zero) : 6F013067
    AccurateRip signature : 31B17D65
    ->Accurately ripped! (confidence 11)
    Statistics
    Read error : 0
    Jitter error (maybe fixed) : 0
    Retry sector count : 0
    Damaged sector count : 0
    Track 18
    Filename : /Volumes/MUSIC/T/Schubert - Die Schöene Müllerin (2009) [FLAC] {HMC 901995}/18 - Franz Schubert - Die Schöne Müllerin, Op.25 D.795 - XVIII. Trockne Blumen.flac
    Track gain : 1.28 dB
    Peak : 0.988525
    CRC32 hash (test run) : 705A304A
    CRC32 hash : 705A304A
    CRC32 hash (skip zero) : 74A03BE2
    AccurateRip signature : D5AA9A26
    ->Accurately ripped! (confidence 11)
    Statistics
    Read error : 0
    Jitter error (maybe fixed) : 0
    Retry sector count : 0
    Damaged sector count : 0
    Track 19
    Filename : /Volumes/MUSIC/T/Schubert - Die Schöene Müllerin (2009) [FLAC] {HMC 901995}/19 - Franz Schubert - Die Schöne Müllerin, Op.25 D.795 - XIX. Der Mueller und der Bach.flac
    Track gain : 8.87 dB
    Peak : 0.464630
    CRC32 hash (test run) : C316E2C8
    CRC32 hash : C316E2C8
    CRC32 hash (skip zero) : 2ECBE6AC
    AccurateRip signature : 495A2AAA
    ->Accurately ripped! (confidence 11)
    Statistics
    Read error : 0
    Jitter error (maybe fixed) : 0
    Retry sector count : 0
    Damaged sector count : 0
    Track 20
    Filename : /Volumes/MUSIC/T/Schubert - Die Schöene Müllerin (2009) [FLAC] {HMC 901995}/20 - Franz Schubert - Die Schöne Müllerin, Op.25 D.795 - XX. Des Baches Wiegenlied.flac
    Track gain : 9.91 dB
    Peak : 0.338348
    CRC32 hash (test run) : 0FD246EE
    CRC32 hash : 0FD246EE
    CRC32 hash (skip zero) : C111626C
    AccurateRip signature : D64FAD83
    ->Accurately ripped! (confidence 11)
    Statistics
    Read error : 0
    Jitter error (maybe fixed) : 0
    Retry sector count : 0
    Damaged sector count : 0
    No errors occurred
    End of status report

    auCDtect Task Manager log / Отчёт auCDtect Task Manager

    -----------------------
    DON'T MODIFY THIS FILE
    -----------------------
    PERFORMER: auCDtect Task Manager, ver. 1.5.1RC3 build 1.5.1.4
    Copyright (c) 2008-2010 y-soft. All rights reserved
    ANALYZER: auCDtect: CD records authenticity detector, version 0.8.2
    Copyright (c) 2004 Oleg Berngardt. All rights reserved.
    Copyright (c) 2004 Alexander Djourik. All rights reserved.
    FILE: 16 - Die schoene Muellerin, D. 795 - Nr. 16. Die liebe Farbe.flac
    Size: 18890057 Hash: 79F7580F0E1FC5B4FA3663A2C8540C36 Accuracy: -m0
    Conclusion: CDDA 43%
    Signature: 04AC4ED39E192C5E8C37899E7CB7B5E4917B35B6
    FILE: 15 - Die schoene Muellerin, D. 795 - Nr. 15. Eifersucht und Stolz.flac
    Size: 7277702 Hash: E231F54F1902FF37CA0BC850A5C09BD5 Accuracy: -m0
    Conclusion: CDDA 100%
    Signature: A63E210D9C4C4B1C5BDECE570D1D2D7F4B12A36D
    FILE: 14 - Die schoene Muellerin, D. 795 - Nr. 14. Der Jaeger.flac
    Size: 5733946 Hash: CE5572F50C5A56460A70164F3FE1E8FB Accuracy: -m0
    Conclusion: CDDA 100%
    Signature: D13A56CCA4E6A8DD46ECA66C4F96FFFFF86C8268
    FILE: 13 - Die schoene Muellerin, D. 795 - Nr. 13. Mit dem gruenen Lautenbande.flac
    Size: 8186127 Hash: 439B3C9561788803F435EE6092060DB8 Accuracy: -m0
    Conclusion: CDDA 94%
    Signature: FC04E68197CFB4D10EB963A108E2B45650D30F41
    FILE: 12 - Die schoene Muellerin, D. 795 - Nr. 12. Pause.flac
    Size: 18463441 Hash: 6EDD2C029E46D59085C8BE15337D770A Accuracy: -m0
    Conclusion: CDDA 86%
    Signature: 9BD08FF9B4D119CFF0ED5B4BB73E34328FFBC0E0
    FILE: 11 - Die schoene Muellerin, D. 795 - Nr. 11. Mein!.flac
    Size: 10541429 Hash: 7E6516242B7FA67C00FBCD8643DF0687 Accuracy: -m0
    Conclusion: CDDA 100%
    Signature: B3EF8E011BF45F28C2E671E03171C5A14E44C75E
    FILE: 10 - Die schoene Muellerin, D. 795 - Nr. 10. Traenenregen.flac
    Size: 16666278 Hash: AAFB1D95787647799F4501F5B4AD4801 Accuracy: -m0
    Conclusion: CDDA 42%
    Signature: 4B6525056ACB093D697693728DDA2B21AF1A5D54
    FILE: 09 - Die schoene Muellerin, D. 795 - Nr. 9. Des Muellers Blumen.flac
    Size: 13013577 Hash: 7375D5CF2136DADA55B430BF221E514F Accuracy: -m0
    Conclusion: CDDA 85%
    Signature: 3B52794E7A601200EBB7D478C83B405F3B35F24F
    FILE: 08 - Die schoene Muellerin, D. 795 - Nr. 8. Morgengruss.flac
    Size: 17781345 Hash: 7DB5FD76CEA63DF94993B0A70ECAF0AF Accuracy: -m0
    Conclusion: CDDA 86%
    Signature: 39E1271FFFC2D3FA560E8713B26E3E7CE27D19BE
    FILE: 07 - Die schoene Muellerin, D. 795 - Nr. 7. Ungeduld.flac
    Size: 11520172 Hash: 06A9C1D120A9BDCAB5CD1DC7971B53A8 Accuracy: -m0
    Conclusion: CDDA 76%
    Signature: DB08C2A6A817708CC8A5485FD9962956C788241B
    FILE: 06 - Die schoene Muellerin, D. 795 - Nr. 6. Der Neugerige.flac
    Size: 17192394 Hash: F3B4605CCC14CE919CC641D4E44375AA Accuracy: -m0
    Conclusion: CDDA 86%
    Signature: 291E5BF4A0E1F48F5ACAA91E9F5CE0A5A1612FA5
    FILE: 05 - Die schoene Muellerin, D. 795 - Nr. 5. Am Feierabend.flac
    Size: 9711433 Hash: 2E354B60C157227DEC44B26FD1882845 Accuracy: -m0
    Conclusion: CDDA 100%
    Signature: 71C115E7F22B11B305C8A9C4A96EAD6F0987B60F
    FILE: 04 - Die schoene Muellerin, D. 795 - Nr. 4. Danksagung an den Bach.flac
    Size: 8821642 Hash: 20367C54AEBD674AAD06BCC688C64012 Accuracy: -m0
    Conclusion: CDDA 92%
    Signature: 76831A6A08736B6D4CE9A47F8A140D691464E5F7
    FILE: 03 - Die schoene Muellerin, D. 795 - Nr. 3. Halt!.flac
    Size: 6291010 Hash: B29E39A6EEAB491469D94F86809E882C Accuracy: -m0
    Conclusion: CDDA 100%
    Signature: 08C0E67196BB1A8E59EC55F3EDA19D13D0E5CA02
    FILE: 02 - Die schoene Muellerin, D. 795 - Nr. 2. Wohin.flac
    Size: 11009290 Hash: 51EA7297BCA7BBB68BFC9702F661DF6E Accuracy: -m0
    Conclusion: CDDA 87%
    Signature: 5F3BEFCDB5C1B3C2263634761B21D32F3E1B8DE3
    FILE: 01 - Die schoene Muellerin, D. 795 - Nr. 1. Das Wandern.flac
    Size: 11893780 Hash: 2DB34409D6BEE46A953DD725A469F06D Accuracy: -m0
    Conclusion: CDDA 100%
    Signature: A2353AAF853B60FBF3164C59B75F0EFBDC81D834
    FILE: 20 - Die schoene Muellerin, D. 795 - Nr. 20. Des Baches Wiegenlied.flac
    Size: 31234020 Hash: 22AF0ED7C8C84881CAD4E960F05B72C8 Accuracy: -m0
    Conclusion: CDDA 62%
    Signature: 8C053066EC0320467F8CE1225D6E2B4F452A2281
    FILE: 19 - Die schoene Muellerin, D. 795 - Nr. 19. Der Mueller und der Bach.flac
    Size: 17327647 Hash: DA3990737D7FD451AC62321D61ED14F8 Accuracy: -m0
    Conclusion: CDDA 62%
    Signature: 1DB2B033DEDA36D1BB5633BDB8085A386CE9CD54
    FILE: 18 - Die schoene Muellerin, D. 795 - Nr. 18. Trockne Blumen.flac
    Size: 16998342 Hash: 5B081543F728984AF09AA09057D86A51 Accuracy: -m0
    Conclusion: CDDA 43%
    Signature: 0E181803A50F5BF2D0B77230056FAD651F09B487
    FILE: 17 - Die schoene Muellerin, D. 795 - Nr. 17. Die boese Farbe.flac
    Size: 9832433 Hash: CAC2516146B55B746C69EB43AE510EED Accuracy: -m0
    Conclusion: CDDA 99%
    Signature: B8B5DE18FB2D82F120AE81F98C4EEA3BCA6FE18C

    CUETools log / Отчёт CUETools

    [CUETools log; Date: 08.11.2013 19:00:22; Version: 2.1.4]
    [AccurateRip ID: 002cfb7b-02a1bf3d-e310b014] found.
    Track [ CRC | V2 ] Status
    01 [65253c4a|40bd2bb2] (11+11/22) Accurately ripped
    02 [80a05bc4|121b4fe2] (11+11/22) Accurately ripped
    03 [c212c8f5|d7d0a784] (10+11/21) Accurately ripped
    04 [a59b010a|7c2148ae] (11+11/22) Accurately ripped
    05 [e8b043d2|0b98c811] (11+11/22) Accurately ripped
    06 [7e300a88|f3f5e02a] (11+11/22) Accurately ripped
    07 [f7fced8b|9a5d339b] (11+11/22) Accurately ripped
    08 [a0df24cf|d62213c7] (11+11/22) Accurately ripped
    09 [72e0c822|a98a95bf] (11+11/22) Accurately ripped
    10 [864897fa|0c341e12] (11+11/22) Accurately ripped
    11 [c548fb72|6ce5fd00] (11+11/22) Accurately ripped
    12 [efe85d1d|bfd474ea] (11+11/22) Accurately ripped
    13 [f5887a78|fbb2cc7d] (11+11/22) Accurately ripped
    14 [ba9f32ad|40b5a161] (11+11/22) Accurately ripped
    15 [21d63803|0b1b6567] (11+11/22) Accurately ripped
    16 [53f97f76|b11b92da] (11+11/22) Accurately ripped
    17 [31b17d65|fb83e854] (11+11/22) Accurately ripped
    18 [d5aa9a26|bde3a61c] (11+11/22) Accurately ripped
    19 [495a2aaa|140df965] (11+11/22) Accurately ripped
    20 [d64fad83|db6e95ab] (11+11/22) Accurately ripped
    Track Peak [ CRC32 ] [W/O NULL]
    -- 98,8 [ABACC5D7] [F5ABF535]
    01 77,4 [A89466CE] [4B6F9251]
    02 69,9 [B1C133CA] [84B20BE7]
    03 87,4 [629BBF04] [3E0E2D7E]
    04 63,8 [1B7EA796] [ABC61ACB]
    05 98,8 [36A57065] [16505179]
    06 35,8 [C1094FCA] [2F5C4A4E]
    07 98,8 [6A827075] [4F1D641A]
    08 53,9 [807E1EC8] [F7774C5B]
    09 29,5 [81637A50] [61472380]
    10 48,1 [B5579662] [97227654]
    11 98,8 [7DC0C580] [C314C927]
    12 94,9 [41776BF6] [E107B58B]
    13 96,9 [8392F7AC] [F0337B03]
    14 98,8 [B76C8D15] [C07C6158]
    15 98,8 [3060E792] [402430DF]
    16 98,8 [4FAF8882] [1FD469D5]
    17 98,8 [0E1B00E5] [6F013067]
    18 98,8 [705A304A] [74A03BE2]
    19 46,4 [C316E2C8] [2ECBE6AC]
    20 33,8 [0FD246EE] [C111626C]

    CUE sheet

    TITLE "Franz Schubert: «Die schöne Müllerin»"
    PERFORMER "Matthias Goerne"
    REM GENRE Classical
    REM DISCID E310B014
    REM REPLAYGAIN_ALBUM_GAIN 1.93 dB
    REM REPLAYGAIN_ALBUM_PEAK 0.988922
    FILE "01 - Die schoene Muellerin, D. 795 - Nr. 1. Das Wandern.flac" WAVE
    TRACK 01 AUDIO
    TITLE "«Die schöne Müllerin», D. 795: Nr. 1. «Das Wandern»"
    PERFORMER "Matthias Goerne (baritone), Christoph Eschenbach (piano)"
    REM DATE 2008
    REM REPLAYGAIN_TRACK_GAIN 1.89 dB
    REM REPLAYGAIN_TRACK_PEAK 0.774445
    INDEX 01 00:00:00
    FILE "02 - Die schoene Muellerin, D. 795 - Nr. 2. Wohin.flac" WAVE
    TRACK 02 AUDIO
    TITLE "«Die schöne Müllerin», D. 795: Nr. 2. «Wohin?»"
    PERFORMER "Matthias Goerne (baritone), Christoph Eschenbach (piano)"
    REM DATE 2008
    REM REPLAYGAIN_TRACK_GAIN 4.85 dB
    REM REPLAYGAIN_TRACK_PEAK 0.699036
    INDEX 01 00:00:00
    FILE "03 - Die schoene Muellerin, D. 795 - Nr. 3. Halt!.flac" WAVE
    TRACK 03 AUDIO
    TITLE "«Die schöne Müllerin», D. 795: Nr. 3. «Halt!»"
    PERFORMER "Matthias Goerne (baritone), Christoph Eschenbach (piano)"
    REM DATE 2008
    REM REPLAYGAIN_TRACK_GAIN -0.58 dB
    REM REPLAYGAIN_TRACK_PEAK 0.874634
    INDEX 01 00:00:00
    FILE "04 - Die schoene Muellerin, D. 795 - Nr. 4. Danksagung an den Bach.flac" WAVE
    TRACK 04 AUDIO
    TITLE "«Die schöne Müllerin», D. 795: Nr. 4. «Danksagung an den Bach»"
    PERFORMER "Matthias Goerne (baritone), Christoph Eschenbach (piano)"
    REM DATE 2008
    REM REPLAYGAIN_TRACK_GAIN 3.45 dB
    REM REPLAYGAIN_TRACK_PEAK 0.638428
    INDEX 01 00:00:00
    FILE "05 - Die schoene Muellerin, D. 795 - Nr. 5. Am Feierabend.flac" WAVE
    TRACK 05 AUDIO
    TITLE "«Die schöne Müllerin», D. 795: Nr. 5. «Am Feierabend»"
    PERFORMER "Matthias Goerne (baritone), Christoph Eschenbach (piano)"
    REM DATE 2008
    REM REPLAYGAIN_TRACK_GAIN -3.05 dB
    REM REPLAYGAIN_TRACK_PEAK 0.988892
    INDEX 01 00:00:00
    FILE "06 - Die schoene Muellerin, D. 795 - Nr. 6. Der Neugerige.flac" WAVE
    TRACK 06 AUDIO
    TITLE "«Die schöne Müllerin», D. 795: Nr. 6. «Der Neugerige»"
    PERFORMER "Matthias Goerne (baritone), Christoph Eschenbach (piano)"
    REM DATE 2008
    REM REPLAYGAIN_TRACK_GAIN 9.81 dB
    REM REPLAYGAIN_TRACK_PEAK 0.358002
    INDEX 01 00:00:00
    FILE "07 - Die schoene Muellerin, D. 795 - Nr. 7. Ungeduld.flac" WAVE
    TRACK 07 AUDIO
    TITLE "«Die schöne Müllerin», D. 795: Nr. 7. «Ungeduld»"
    PERFORMER "Matthias Goerne (baritone), Christoph Eschenbach (piano)"
    REM DATE 2008
    REM REPLAYGAIN_TRACK_GAIN -2.08 dB
    REM REPLAYGAIN_TRACK_PEAK 0.988861
    INDEX 01 00:00:00
    FILE "08 - Die schoene Muellerin, D. 795 - Nr. 8. Morgengruss.flac" WAVE
    TRACK 08 AUDIO
    TITLE "«Die schöne Müllerin», D. 795: Nr. 8. «Morgengruß»"
    PERFORMER "Matthias Goerne (baritone), Christoph Eschenbach (piano)"
    REM DATE 2008
    REM REPLAYGAIN_TRACK_GAIN 9.29 dB
    REM REPLAYGAIN_TRACK_PEAK 0.539551
    INDEX 01 00:00:00
    FILE "09 - Die schoene Muellerin, D. 795 - Nr. 9. Des Muellers Blumen.flac" WAVE
    TRACK 09 AUDIO
    TITLE "«Die schöne Müllerin», D. 795: Nr. 9. «Des Müllers Blumen»"
    PERFORMER "Matthias Goerne (baritone), Christoph Eschenbach (piano)"
    REM DATE 2008
    REM REPLAYGAIN_TRACK_GAIN 8.52 dB
    REM REPLAYGAIN_TRACK_PEAK 0.295197
    INDEX 01 00:00:00
    FILE "10 - Die schoene Muellerin, D. 795 - Nr. 10. Traenenregen.flac" WAVE
    TRACK 10 AUDIO
    TITLE "«Die schöne Müllerin», D. 795: Nr. 10. «Tränenregen»"
    PERFORMER "Matthias Goerne (baritone), Christoph Eschenbach (piano)"
    REM DATE 2008
    REM REPLAYGAIN_TRACK_GAIN 8.63 dB
    REM REPLAYGAIN_TRACK_PEAK 0.481964
    INDEX 01 00:00:00
    FILE "11 - Die schoene Muellerin, D. 795 - Nr. 11. Mein!.flac" WAVE
    TRACK 11 AUDIO
    TITLE "«Die schöne Müllerin», D. 795: Nr. 11. «Mein!»"
    PERFORMER "Matthias Goerne (baritone), Christoph Eschenbach (piano)"
    REM DATE 2008
    REM REPLAYGAIN_TRACK_GAIN -3.66 dB
    REM REPLAYGAIN_TRACK_PEAK 0.988892
    INDEX 01 00:00:00
    FILE "12 - Die schoene Muellerin, D. 795 - Nr. 12. Pause.flac" WAVE
    TRACK 12 AUDIO
    TITLE "«Die schöne Müllerin», D. 795: Nr. 12. «Pause»"
    PERFORMER "Matthias Goerne (baritone), Christoph Eschenbach (piano)"
    REM DATE 2008
    REM REPLAYGAIN_TRACK_GAIN 7.08 dB
    REM REPLAYGAIN_TRACK_PEAK 0.949951
    INDEX 01 00:00:00
    FILE "13 - Die schoene Muellerin, D. 795 - Nr. 13. Mit dem gruenen Lautenbande.flac" WAVE
    TRACK 13 AUDIO
    TITLE "«Die schöne Müllerin», D. 795: Nr. 13. «Mit dem grünen Lautenbande»"
    PERFORMER "Matthias Goerne (baritone), Christoph Eschenbach (piano)"
    REM DATE 2008
    REM REPLAYGAIN_TRACK_GAIN 0.33 dB
    REM REPLAYGAIN_TRACK_PEAK 0.969696
    INDEX 01 00:00:00
    FILE "14 - Die schoene Muellerin, D. 795 - Nr. 14. Der Jaeger.flac" WAVE
    TRACK 14 AUDIO
    TITLE "«Die schöne Müllerin», D. 795: Nr. 14. «Der Jäger»"
    PERFORMER "Matthias Goerne (baritone), Christoph Eschenbach (piano)"
    REM DATE 2008
    REM REPLAYGAIN_TRACK_GAIN -2.47 dB
    REM REPLAYGAIN_TRACK_PEAK 0.988708
    INDEX 01 00:00:00
    FILE "15 - Die schoene Muellerin, D. 795 - Nr. 15. Eifersucht und Stolz.flac" WAVE
    TRACK 15 AUDIO
    TITLE "«Die schöne Müllerin», D. 795: Nr. 15. «Eifersucht und Stolz»"
    PERFORMER "Matthias Goerne (baritone), Christoph Eschenbach (piano)"
    REM DATE 2008
    REM REPLAYGAIN_TRACK_GAIN -2.37 dB
    REM REPLAYGAIN_TRACK_PEAK 0.988739
    INDEX 01 00:00:00
    FILE "16 - Die schoene Muellerin, D. 795 - Nr. 16. Die liebe Farbe.flac" WAVE
    TRACK 16 AUDIO
    TITLE "«Die schöne Müllerin», D. 795: Nr. 16. «Die liebe Farbe»"
    PERFORMER "Matthias Goerne (baritone), Christoph Eschenbach (piano)"
    REM DATE 2008
    REM REPLAYGAIN_TRACK_GAIN 4.81 dB
    REM REPLAYGAIN_TRACK_PEAK 0.988770
    INDEX 01 00:00:00
    FILE "17 - Die schoene Muellerin, D. 795 - Nr. 17. Die boese Farbe.flac" WAVE
    TRACK 17 AUDIO
    TITLE "«Die schöne Müllerin», D. 795: Nr. 17. «Die böse Farbe»"
    PERFORMER "Matthias Goerne (baritone), Christoph Eschenbach (piano)"
    REM DATE 2008
    REM REPLAYGAIN_TRACK_GAIN -3.96 dB
    REM REPLAYGAIN_TRACK_PEAK 0.988922
    INDEX 01 00:00:00
    FILE "18 - Die schoene Muellerin, D. 795 - Nr. 18. Trockne Blumen.flac" WAVE
    TRACK 18 AUDIO
    TITLE "«Die schöne Müllerin», D. 795: Nr. 18. «Trockne Blumen»"
    PERFORMER "Matthias Goerne (baritone), Christoph Eschenbach (piano)"
    REM DATE 2008
    REM REPLAYGAIN_TRACK_GAIN 1.28 dB
    REM REPLAYGAIN_TRACK_PEAK 0.988525
    INDEX 01 00:00:00
    FILE "19 - Die schoene Muellerin, D. 795 - Nr. 19. Der Mueller und der Bach.flac" WAVE
    TRACK 19 AUDIO
    TITLE "«Die schöne Müllerin», D. 795: Nr. 19. «Der Müller und der Bach»"
    PERFORMER "Matthias Goerne (baritone), Christoph Eschenbach (piano)"
    REM DATE 2008
    REM REPLAYGAIN_TRACK_GAIN 8.87 dB
    REM REPLAYGAIN_TRACK_PEAK 0.464630
    INDEX 01 00:00:00
    FILE "20 - Die schoene Muellerin, D. 795 - Nr. 20. Des Baches Wiegenlied.flac" WAVE
    TRACK 20 AUDIO
    TITLE "«Die schöne Müllerin», D. 795: Nr. 20. «Des Baches Wiegenlied»"
    PERFORMER "Matthias Goerne (baritone), Christoph Eschenbach (piano)"
    REM DATE 2008
    REM REPLAYGAIN_TRACK_GAIN 9.91 dB
    REM REPLAYGAIN_TRACK_PEAK 0.338348
    INDEX 01 00:00:00
    -
    Matthias Goerne Schubert Edition — все раздачиFranz Schubert — каталог раздач на rutracker.orgВсе мои раздачи / All my releases



  • Показать сообщения:    

    Текущее время: 07-Дек 21:21

    Часовой пояс: UTC + 3


    Вы не можете начинать темы
    Вы не можете отвечать на сообщения
    Вы не можете редактировать свои сообщения
    Вы не можете удалять свои сообщения
    Вы не можете голосовать в опросах
    Вы не можете прикреплять файлы к сообщениям
    Вы не можете скачивать файлы