(Classical / Vocal / Piano Sonata) Matthias Goerne Schubert Edition, Volume 6: «Schwanengesang» • Klaviersonate Nr. 21, D. 960 (Matthias Goerne, Christoph Eschenbach, 2010, 2011) - 2012, FLAC (tracks+.cue) lossless


 

[Цитировать]

Franz Schubert | Франц Шуберт
(1797–1828)



Matthias Goerne Schubert Edition
Volume 6
«Schwanengesang» • Klaviersonate Nr. 21



Matthias Goerne baritoneChristoph Eschenbach piano


Жанр: Classical / Vocal / Piano Sonata
Дата записи: Teldex Studio, Berlin, February 2010 & January 2011
Формат записи: DDD, Stereo
Год издания диска: 2012
Издатель (лейбл): Harmonia Mundi
Номер по каталогу: HMC 902139.40
Аудиокодек: FLAC
Тип рипа: tracks+.cue
Битрейт аудио: lossless
Продолжительность: 1:50:45
Наличие сканов в содержимом раздачи: да
Источник: What.CD
Релизёр: dtromp


Tracklist / Треклист
CD 1
«Schwanengesang», D. 957 - 1:01:27
Nr. 1. «Liebesbotschaft» - 3:23
  • Nr. 2. «Kriegers Ahnung» - 4:40
  • Nr. 3. «Frühlingssehnsucht» - 3:26
  • Nr. 4. «Ständchen» - 4:20
  • Nr. 5. «Aufenthalt» - 3:03
  • «Herbst», D. 945 - 4:08
  • Nr. 6. «In der Ferne» - 6:34
  • Nr. 7. «Abschied» - 4:27
  • Nr. 8. «Der Atlas» - 2:07
  • Nr. 9. «Ihr Bild» - 3:47
  • Nr. 10. «Das Fischermädchen» - 2:34
  • Nr. 11. «Die Stadt» - 3:08
  • Nr. 12. «Am Meer» - 5:02
  • Nr. 13. «Der Doppelgänger» - 6:26
  • Nr. 14. «Die Taubenpost» - 4:23
    CD 2
    Klaviersonate Nr. 21 B-dur, D. 960 - 49:18
    I. Molto moderato - 21:14
  • II. Andante sostenuto - 13:24
  • III. Scherzo: Allegro vivace con delicatezza - 4:52
  • IV. Allegro, ma non troppo - 9:47

    -

    EAC logs / Отчёты EACCD 1: «Schwanengesang», D. 957

    Exact Audio Copy V1.0 beta 3 from 29. August 2011
    EAC extraction logfile from 25. July 2012, 14:59
    Franz Schubert / Schwanengesang
    Used drive : PLEXTOR DVDR PX-860A Adapter: 0 ID: 0
    Read mode : Secure
    Utilize accurate stream : Yes
    Defeat audio cache : Yes
    Make use of C2 pointers : No
    Read offset correction : 96
    Overread into Lead-In and Lead-Out : No
    Fill up missing offset samples with silence : Yes
    Delete leading and trailing silent blocks : No
    Null samples used in CRC calculations : Yes
    Used interface : Native Win32 interface for Win NT & 2000
    Gap handling : Appended to previous track
    Used output format : User Defined Encoder
    Selected bitrate : 1024 kBit/s
    Quality : High
    Add ID3 tag : No
    Command line compressor : C:\Program Files\Exact Audio Copy\Flac\flac.exe
    Additional command line options : -8 -V -T "ARTIST=%artist%" -T "TITLE=%title%" -T "ALBUM=%albumtitle%" -T "DATE=%year%" -T "TRACKNUMBER=%tracknr%" -T "GENRE=%genre%" -T "PERFORMER=%albuminterpret%" -T "COMPOSER=%composer%" %haslyrics%--tag-from-file=LYRICS="%lyricsfile%"%haslyrics% -T "ALBUMARTIST=%albumartist%" -T "DISCNUMBER=%cdnumber%" -T "TOTALDISCS=%totalcds%" -T "TOTALTRACKS=%numtracks%" -T "COMMENT=EAC Secure Mode, Test & Copy, AccurateRip, FLAC -8" %source% -o %dest%
    TOC of the extracted CD
    Track | Start | Length | Start sector | End sector
    ---------------------------------------------------------
    1 | 0:00.00 | 3:22.45 | 0 | 15194
    2 | 3:22.45 | 4:40.04 | 15195 | 36198
    3 | 8:02.49 | 3:26.33 | 36199 | 51681
    4 | 11:29.07 | 4:20.11 | 51682 | 71192
    5 | 15:49.18 | 3:02.66 | 71193 | 84908
    6 | 18:52.09 | 4:08.02 | 84909 | 103510
    7 | 23:00.11 | 6:33.47 | 103511 | 133032
    8 | 29:33.58 | 4:27.20 | 133033 | 153077
    9 | 34:01.03 | 2:06.62 | 153078 | 162589
    10 | 36:07.65 | 3:47.06 | 162590 | 179620
    11 | 39:54.71 | 2:33.48 | 179621 | 191143
    12 | 42:28.44 | 3:07.72 | 191144 | 205240
    13 | 45:36.41 | 5:01.48 | 205241 | 227863
    14 | 50:38.14 | 6:25.57 | 227864 | 256795
    15 | 57:03.71 | 4:23.12 | 256796 | 276532
    Track 1
    Filename I:\DL\Franz Schubert - Schwanengesang (2012) [FLAC]\01 - Schwanengesang D.957. 1. Liebesbotschaft.wav
    Pre-gap length 0:00:02.00
    Peak level 32.8 %
    Extraction speed 4.2 X
    Track quality 100.0 %
    Test CRC 56D2F653
    Copy CRC 56D2F653
    Track not present in AccurateRip database
    Copy OK
    Track 2
    Filename I:\DL\Franz Schubert - Schwanengesang (2012) [FLAC]\02 - Schwanengesang D.957. 2. Kriegers Ahnung.wav
    Peak level 83.9 %
    Extraction speed 4.8 X
    Track quality 100.0 %
    Test CRC F39A859E
    Copy CRC F39A859E
    Track not present in AccurateRip database
    Copy OK
    Track 3
    Filename I:\DL\Franz Schubert - Schwanengesang (2012) [FLAC]\03 - Schwanengesang D.957. 3. Fruhlingssehnsucht.wav
    Peak level 98.8 %
    Extraction speed 5.0 X
    Track quality 100.0 %
    Test CRC 9B4D72DA
    Copy CRC 9B4D72DA
    Track not present in AccurateRip database
    Copy OK
    Track 4
    Filename I:\DL\Franz Schubert - Schwanengesang (2012) [FLAC]\04 - Schwanengesang D.957. 4. Standchen.wav
    Peak level 82.5 %
    Extraction speed 5.5 X
    Track quality 100.0 %
    Test CRC 317E62D2
    Copy CRC 317E62D2
    Track not present in AccurateRip database
    Copy OK
    Track 5
    Filename I:\DL\Franz Schubert - Schwanengesang (2012) [FLAC]\05 - Schwanengesang D.957. 5. Aufenthalt.wav
    Peak level 98.8 %
    Extraction speed 5.6 X
    Track quality 100.0 %
    Test CRC DFE8DDC4
    Copy CRC DFE8DDC4
    Track not present in AccurateRip database
    Copy OK
    Track 6
    Filename I:\DL\Franz Schubert - Schwanengesang (2012) [FLAC]\06 - Herbst D.945.wav
    Peak level 77.5 %
    Extraction speed 6.0 X
    Track quality 100.0 %
    Test CRC 4A415502
    Copy CRC 4A415502
    Track not present in AccurateRip database
    Copy OK
    Track 7
    Filename I:\DL\Franz Schubert - Schwanengesang (2012) [FLAC]\07 - Schwanengesang D.957. 6. In der Ferne.wav
    Peak level 78.5 %
    Extraction speed 6.8 X
    Track quality 100.0 %
    Test CRC 16F4C3C0
    Copy CRC 16F4C3C0
    Track not present in AccurateRip database
    Copy OK
    Track 8
    Filename I:\DL\Franz Schubert - Schwanengesang (2012) [FLAC]\08 - Schwanengesang D.957. 7. Abschied.wav
    Peak level 67.4 %
    Extraction speed 6.2 X
    Track quality 99.9 %
    Test CRC C81D0FAF
    Copy CRC C81D0FAF
    Track not present in AccurateRip database
    Copy OK
    Track 9
    Filename I:\DL\Franz Schubert - Schwanengesang (2012) [FLAC]\09 - Schwanengesang D.957. 8. Der Atlas.wav
    Peak level 98.8 %
    Extraction speed 5.1 X
    Track quality 99.9 %
    Test CRC 38B2A06A
    Copy CRC 38B2A06A
    Track not present in AccurateRip database
    Copy OK
    Track 10
    Filename I:\DL\Franz Schubert - Schwanengesang (2012) [FLAC]\10 - Schwanengesang D.957. 9. Ihr Bild.wav
    Peak level 49.7 %
    Extraction speed 6.3 X
    Track quality 99.9 %
    Test CRC 295A159A
    Copy CRC 295A159A
    Track not present in AccurateRip database
    Copy OK
    Track 11
    Filename I:\DL\Franz Schubert - Schwanengesang (2012) [FLAC]\11 - Schwanengesang D.957. 10. Das Fischermadchen.wav
    Peak level 32.8 %
    Extraction speed 6.8 X
    Track quality 100.0 %
    Test CRC 98CD2B5D
    Copy CRC 98CD2B5D
    Track not present in AccurateRip database
    Copy OK
    Track 12
    Filename I:\DL\Franz Schubert - Schwanengesang (2012) [FLAC]\12 - Schwanengesang D.957. 11. Die Stadt.wav
    Peak level 67.4 %
    Extraction speed 7.2 X
    Track quality 100.0 %
    Test CRC 4DAB8738
    Copy CRC 4DAB8738
    Track not present in AccurateRip database
    Copy OK
    Track 13
    Filename I:\DL\Franz Schubert - Schwanengesang (2012) [FLAC]\13 - Schwanengesang D.957. 12. Am Meer.wav
    Peak level 81.1 %
    Extraction speed 8.0 X
    Track quality 100.0 %
    Test CRC C70B8705
    Copy CRC C70B8705
    Track not present in AccurateRip database
    Copy OK
    Track 14
    Filename I:\DL\Franz Schubert - Schwanengesang (2012) [FLAC]\14 - Schwanengesang D.957. 13. Der Doppelganger.wav
    Peak level 98.8 %
    Extraction speed 7.8 X
    Track quality 99.9 %
    Test CRC 114781FD
    Copy CRC 114781FD
    Track not present in AccurateRip database
    Copy OK
    Track 15
    Filename I:\DL\Franz Schubert - Schwanengesang (2012) [FLAC]\15 - Schwanengesang D.957. 14. Die Taubenpost.wav
    Peak level 37.5 %
    Extraction speed 8.3 X
    Track quality 100.0 %
    Test CRC 72CCB40B
    Copy CRC 72CCB40B
    Track not present in AccurateRip database
    Copy OK
    None of the tracks are present in the AccurateRip database
    No errors occurred
    End of status report
    ---- CUETools DB Plugin V2.1.3
    [CTDB TOCID: Qj_zH77xGBXpDHX8CK_KW8Q.nLI-] disk not present in database, Submit result: database access error: The request was aborted: The request was canceled.
    ==== Log checksum 6DCAF9D1F4427CAA78F4B198652149B4B6F1C6BD6E96B26741D1037C31C2078F ====

    CD 2: Klaviersonate Nr. 21, D. 960

    Exact Audio Copy V1.0 beta 3 from 29. August 2011
    EAC extraction logfile from 25. July 2012, 16:20
    Franz Schubert / Piano Sonata D.960
    Used drive : PLEXTOR DVDR PX-860A Adapter: 0 ID: 0
    Read mode : Secure
    Utilize accurate stream : Yes
    Defeat audio cache : Yes
    Make use of C2 pointers : No
    Read offset correction : 96
    Overread into Lead-In and Lead-Out : No
    Fill up missing offset samples with silence : Yes
    Delete leading and trailing silent blocks : No
    Null samples used in CRC calculations : Yes
    Used interface : Native Win32 interface for Win NT & 2000
    Gap handling : Appended to previous track
    Used output format : User Defined Encoder
    Selected bitrate : 1024 kBit/s
    Quality : High
    Add ID3 tag : No
    Command line compressor : C:\Program Files\Exact Audio Copy\Flac\flac.exe
    Additional command line options : -8 -V -T "ARTIST=%artist%" -T "TITLE=%title%" -T "ALBUM=%albumtitle%" -T "DATE=%year%" -T "TRACKNUMBER=%tracknr%" -T "GENRE=%genre%" -T "PERFORMER=%albuminterpret%" -T "COMPOSER=%composer%" %haslyrics%--tag-from-file=LYRICS="%lyricsfile%"%haslyrics% -T "ALBUMARTIST=%albumartist%" -T "DISCNUMBER=%cdnumber%" -T "TOTALDISCS=%totalcds%" -T "TOTALTRACKS=%numtracks%" -T "COMMENT=EAC Secure Mode, Test & Copy, AccurateRip, FLAC -8" %source% -o %dest%
    TOC of the extracted CD
    Track | Start | Length | Start sector | End sector
    ---------------------------------------------------------
    1 | 0:00.00 | 21:13.69 | 0 | 95543
    2 | 21:13.69 | 13:24.27 | 95544 | 155870
    3 | 34:38.21 | 4:52.22 | 155871 | 177792
    4 | 39:30.43 | 9:47.12 | 177793 | 221829
    Track 1
    Filename I:\DL\Franz Schubert - Piano Sonata D.960 (2012) [FLAC]\01 - I. Molto moderato.wav
    Pre-gap length 0:00:02.00
    Peak level 97.7 %
    Extraction speed 5.7 X
    Track quality 100.0 %
    Test CRC BEE1A61B
    Copy CRC BEE1A61B
    Track not present in AccurateRip database
    Copy OK
    Track 2
    Filename I:\DL\Franz Schubert - Piano Sonata D.960 (2012) [FLAC]\02 - II. Andante sostenuto.wav
    Peak level 48.3 %
    Extraction speed 7.2 X
    Track quality 100.0 %
    Test CRC A8FD1CE6
    Copy CRC A8FD1CE6
    Track not present in AccurateRip database
    Copy OK
    Track 3
    Filename I:\DL\Franz Schubert - Piano Sonata D.960 (2012) [FLAC]\03 - III. Scherzo. Allegro vivace con delicatezza.wav
    Peak level 48.0 %
    Extraction speed 7.3 X
    Track quality 100.0 %
    Test CRC C1D85046
    Copy CRC C1D85046
    Track not present in AccurateRip database
    Copy OK
    Track 4
    Filename I:\DL\Franz Schubert - Piano Sonata D.960 (2012) [FLAC]\04 - IV. Allegro, ma non troppo.wav
    Peak level 97.7 %
    Extraction speed 8.2 X
    Track quality 100.0 %
    Test CRC 8C1EECDF
    Copy CRC 8C1EECDF
    Track not present in AccurateRip database
    Copy OK
    None of the tracks are present in the AccurateRip database
    No errors occurred
    End of status report
    ---- CUETools DB Plugin V2.1.3
    [CTDB TOCID: Py3sxKIAcC2v_vL1FAarT50A4ww-] disk not present in database, Submit result: Py3sxKIAcC2v_vL1FAarT50A4ww- has been uploaded
    ==== Log checksum 6030548A6E2273CFB8BDE78EDB6F708893DC86C4B934A1678E43FF945F1E81DB ====

    auCDtect Task Manager logs / Отчёты auCDtect Task ManagerCD 1: «Schwanengesang», D. 957

    -----------------------
    DON'T MODIFY THIS FILE
    -----------------------
    PERFORMER: auCDtect Task Manager, ver. 1.5.1RC3 build 1.5.1.4
    Copyright (c) 2008-2010 y-soft. All rights reserved
    ANALYZER: auCDtect: CD records authenticity detector, version 0.8.2
    Copyright (c) 2004 Oleg Berngardt. All rights reserved.
    Copyright (c) 2004 Alexander Djourik. All rights reserved.
    FILE: 15 - Schwanengesang, D. 957 - Nr. 14. Die Taubenpost.flac
    Size: 16289630 Hash: 597200276EE60EA268AE362F6339B4C8 Accuracy: -m0
    Conclusion: CDDA 92%
    Signature: B068C28B90DBB119D79942EAD6BB97E3EA19DCD5
    FILE: 14 - Schwanengesang, D. 957 - Nr. 13. Der Doppelgaenger.flac
    Size: 19543429 Hash: ED926866AD2BE10676DAAA0AF826FE8E Accuracy: -m0
    Conclusion: CDDA 54%
    Signature: 9DCBB1C84A1F3AFD724764015DEE3D0493BF7AF3
    FILE: 13 - Schwanengesang, D. 957 - Nr. 12. Am Meer.flac
    Size: 17111216 Hash: C546D1F9E73127CE19ED37701DE8FE4A Accuracy: -m0
    Conclusion: CDDA 58%
    Signature: 1E1F6CBC448D78F8E34F6D01CC69B05382E37FA6
    FILE: 12 - Schwanengesang, D. 957 - Nr. 11. Die Stadt.flac
    Size: 10291345 Hash: 225A06B72D5B06EC4333BC49ED46E1CE Accuracy: -m0
    Conclusion: CDDA 58%
    Signature: AB6687B78135BC674F44C1A86C3D8EEB7ADF2703
    FILE: 11 - Schwanengesang, D. 957 - Nr. 10. Das Fischermaedchen.flac
    Size: 9019801 Hash: 4862FB26ADE0E5E9F95E38EA19C7A917 Accuracy: -m0
    Conclusion: CDDA 94%
    Signature: A4077A78787BBA8E77808B0DB99BB58F9DC16AC0
    FILE: 10 - Schwanengesang, D. 957 - Nr. 9. Ihr Bild.flac
    Size: 11651400 Hash: 77A36D5A9576A982F38CB3F06B74C137 Accuracy: -m0
    Conclusion: CDDA 76%
    Signature: FE7A60253ED7E62052DE90F6C95E7EF01DEDF424
    FILE: 09 - Schwanengesang, D. 957 - Nr. 8. Der Atlas.flac
    Size: 9748516 Hash: FF58BC3E0A6B0FF6E94B9FC3CF827E00 Accuracy: -m0
    Conclusion: CDDA 100%
    Signature: 3FF7AE4B2A8A13ADDC2881647351497ED7DC3363
    FILE: 08 - Schwanengesang, D. 957 - Nr. 7. Abschied.flac
    Size: 17652892 Hash: 72AA8937A7F8137274C9E63309D382D1 Accuracy: -m0
    Conclusion: CDDA 100%
    Signature: E2CBFF3EB1C4EAEF1B83D37935B10DBB708A1B23
    FILE: 07 - Schwanengesang, D. 957 - Nr. 6. In der Ferne.flac
    Size: 24148570 Hash: 1CA33FBCB2D2ADB96E15CE5D7021F890 Accuracy: -m0
    Conclusion: CDDA 92%
    Signature: B4132D86EFEDA59A7EF9196628348B770D1EE651
    FILE: 06 - Herbst, D. 945.flac
    Size: 16141857 Hash: 764AF3484769F9223F0C88D9DB675A90 Accuracy: -m0
    Conclusion: CDDA 54%
    Signature: A206E8716978529790233E7787F9EEB3DB73C195
    FILE: 05 - Schwanengesang, D. 957 - Nr. 5. Aufenthalt.flac
    Size: 13378955 Hash: 6CBA64F5B3504BE40CC0C939C201E867 Accuracy: -m0
    Conclusion: CDDA 94%
    Signature: E02D19B64A62D2F58FB3015D1017995901E97637
    FILE: 04 - Schwanengesang, D. 957 - Nr. 4. Staendchen.flac
    Size: 14888251 Hash: 399C0162811D53DCD6C6217AAB5DD301 Accuracy: -m0
    Conclusion: CDDA 92%
    Signature: A16CCEA441DE9911ACC9DCE7C58863C2970595D5
    FILE: 03 - Schwanengesang, D. 957 - Nr. 3. Fruehlingssehnsucht.flac
    Size: 15560866 Hash: 5D44CD3ADB9DE5177260DB433AB6D076 Accuracy: -m0
    Conclusion: CDDA 100%
    Signature: 0A7A9935C8D68CE81F89FA482C3820487EA3031B
    FILE: 02 - Schwanengesang, D. 957 - Nr. 2. Kriegers Ahnung.flac
    Size: 17648923 Hash: 0138661AF4ADFB49B2E302488C3FB649 Accuracy: -m0
    Conclusion: CDDA 54%
    Signature: E9C453E6088799F7E9C1DD91EB2843A257ADB0FA
    FILE: 01 - Schwanengesang, D. 957 - Nr. 1. Liebesbotschaft.flac
    Size: 11648806 Hash: 34020B8833926DB2294DDAC763D184EA Accuracy: -m0
    Conclusion: CDDA 92%
    Signature: 0BC93456794402003345E1E86116882CE2714C99

    CD 2: Klaviersonate Nr. 21, D. 960

    -----------------------
    DON'T MODIFY THIS FILE
    -----------------------
    PERFORMER: auCDtect Task Manager, ver. 1.5.1RC3 build 1.5.1.4
    Copyright (c) 2008-2010 y-soft. All rights reserved
    ANALYZER: auCDtect: CD records authenticity detector, version 0.8.2
    Copyright (c) 2004 Oleg Berngardt. All rights reserved.
    Copyright (c) 2004 Alexander Djourik. All rights reserved.
    FILE: 04 - Klaviersonate Nr. 21, D. 960 - IV. Allegro, ma non troppo.flac
    Size: 32118516 Hash: C6B32F0C30B7504F51215CF96C378DD3 Accuracy: -m0
    Conclusion: MPEG 90%
    Signature: 6B4C8310635B18B983819933D747A747592EB085
    FILE: 03 - Klaviersonate Nr. 21, D. 960 - III. Scherzo. Allegro vivace con delicatezza.flac
    Size: 14990739 Hash: A15C10025B3E0D909579FCF215981050 Accuracy: -m0
    Conclusion: MPEG 90%
    Signature: 5E8CC93C529527A3F70420713013B6F47441DE84
    FILE: 02 - Klaviersonate Nr. 21, D. 960 - II. Andante sostenuto.flac
    Size: 36163106 Hash: A83FFE53318B1264E64F2844268ADE75 Accuracy: -m0
    Conclusion: MPEG 89%
    Signature: 5531430F0B357611FE54D9AA64D53017985B0347
    FILE: 01 - Klaviersonate Nr. 21, D. 960 - I. Molto moderato.flac
    Size: 66045744 Hash: F157D3CDEFE372549B4BA97C223FC579 Accuracy: -m0
    Conclusion: MPEG 92%
    Signature: D5E0E6EEBE88AC5B18FA3EA8F8F29B7516CBF802

    CUETools logs / Отчёты CUEToolsCD 1: «Schwanengesang», D. 957

    [CUETools log; Date: 08.11.2013 23:51:26; Version: 2.1.4]
    [AccurateRip ID: 0020c8ed-01746f1a-c60e670f] found.
    Track [ CRC | V2 ] Status
    01 [7efab45a|83ba1ca4] (04+14/18) Accurately ripped
    02 [4727d3c3|f0508e6b] (04+14/18) Accurately ripped
    03 [a7de96df|2a38de34] (04+14/18) Accurately ripped
    04 [b8481b1a|115dab86] (04+14/18) Accurately ripped
    05 [598e3bad|c241c686] (04+14/18) Accurately ripped
    06 [0a1eda48|887f95c7] (04+14/18) Accurately ripped
    07 [b03f5545|2e604f81] (04+14/18) Accurately ripped
    08 [23de0fd3|710c67b2] (04+14/18) Accurately ripped
    09 [b0950678|9ac4d47f] (04+14/18) Accurately ripped
    10 [93c399e5|a0895ab9] (04+14/18) Accurately ripped
    11 [9bf7aff5|2162a1a0] (04+14/18) Accurately ripped
    12 [18fe968f|7c126658] (04+14/18) Accurately ripped
    13 [49d85c22|43936f20] (04+14/18) Accurately ripped
    14 [03377694|e6eb2e60] (04+14/18) Accurately ripped
    15 [582915ef|7db1473e] (04+14/18) Accurately ripped
    Track Peak [ CRC32 ] [W/O NULL] [ LOG ]
    -- 98,8 [FE93547F] [B29E3095]
    01 32,8 [56D2F653] [70DE9743] CRC32
    02 83,9 [F39A859E] [0008A1A1] CRC32
    03 98,8 [9B4D72DA] [47B3969F] CRC32
    04 82,5 [317E62D2] [F6E8CB09] CRC32
    05 98,8 [DFE8DDC4] [350B68D1] CRC32
    06 77,5 [4A415502] [B7F19BDF] CRC32
    07 78,5 [16F4C3C0] [46AF3E04] CRC32
    08 67,4 [C81D0FAF] [ABD4CBDE] CRC32
    09 98,8 [38B2A06A] [7905CBB0] CRC32
    10 49,7 [295A159A] [DA8D9594] CRC32
    11 32,8 [98CD2B5D] [E36F13C1] CRC32
    12 67,4 [4DAB8738] [9CD552C8] CRC32
    13 81,1 [C70B8705] [21939E7E] CRC32
    14 98,8 [114781FD] [032CB202] CRC32
    15 37,5 [72CCB40B] [03BB3CBF] CRC32

    CD 2: Klaviersonate Nr. 21, D. 960

    [CUETools log; Date: 08.11.2013 23:51:34; Version: 2.1.4]
    [AccurateRip ID: 0009ef1e-0025d3b0-290b8d04] found.
    Track [ CRC | V2 ] Status
    01 [b726c00c|445344da] (04+14/18) Accurately ripped
    02 [ce03d45e|6531b3a5] (04+14/18) Accurately ripped
    03 [0e190714|a271f517] (04+14/18) Accurately ripped
    04 [d39e3873|64a62226] (04+14/18) Accurately ripped
    Track Peak [ CRC32 ] [W/O NULL] [ LOG ]
    -- 97,7 [D7316022] [C8700587]
    01 97,7 [BEE1A61B] [A8F87264] CRC32
    02 48,3 [A8FD1CE6] [5AA09CF9] CRC32
    03 48,0 [C1D85046] [D6B108C6] CRC32
    04 97,7 [8C1EECDF] [B5FB184C] CRC32

    CUE sheetsCD 1: «Schwanengesang», D. 957

    TITLE "Matthias Goerne Schubert Edition. Volume 6"
    PERFORMER "Matthias Goerne"
    REM GENRE Classical
    REM DISCID C60E670F
    REM COMMENT "ExactAudioCopy v1.0b3"
    FILE "01 - Schwanengesang, D. 957 - Nr. 1. Liebesbotschaft.flac" WAVE
    TRACK 01 AUDIO
    TITLE "«Schwanengesang», D. 957: Nr. 1. «Liebesbotschaft»"
    PERFORMER "Matthias Goerne (baritone), Christoph Eschenbach (piano)"
    REM DATE 2010
    INDEX 01 00:00:00
    FILE "02 - Schwanengesang, D. 957 - Nr. 2. Kriegers Ahnung.flac" WAVE
    TRACK 02 AUDIO
    TITLE "«Schwanengesang», D. 957: Nr. 2. «Kriegers Ahnung»"
    PERFORMER "Matthias Goerne (baritone), Christoph Eschenbach (piano)"
    REM DATE 2010
    INDEX 01 00:00:00
    FILE "03 - Schwanengesang, D. 957 - Nr. 3. Fruehlingssehnsucht.flac" WAVE
    TRACK 03 AUDIO
    TITLE "«Schwanengesang», D. 957: Nr. 3. «Frühlingssehnsucht»"
    PERFORMER "Matthias Goerne (baritone), Christoph Eschenbach (piano)"
    REM DATE 2010
    INDEX 01 00:00:00
    FILE "04 - Schwanengesang, D. 957 - Nr. 4. Staendchen.flac" WAVE
    TRACK 04 AUDIO
    TITLE "«Schwanengesang», D. 957: Nr. 4. «Ständchen»"
    PERFORMER "Matthias Goerne (baritone), Christoph Eschenbach (piano)"
    REM DATE 2010
    INDEX 01 00:00:00
    FILE "05 - Schwanengesang, D. 957 - Nr. 5. Aufenthalt.flac" WAVE
    TRACK 05 AUDIO
    TITLE "«Schwanengesang», D. 957: Nr. 5. «Aufenthalt»"
    PERFORMER "Matthias Goerne (baritone), Christoph Eschenbach (piano)"
    REM DATE 2010
    INDEX 01 00:00:00
    FILE "06 - Herbst, D. 945.flac" WAVE
    TRACK 06 AUDIO
    TITLE "«Herbst», D. 945"
    PERFORMER "Matthias Goerne (baritone), Christoph Eschenbach (piano)"
    REM DATE 2010
    INDEX 01 00:00:00
    FILE "07 - Schwanengesang, D. 957 - Nr. 6. In der Ferne.flac" WAVE
    TRACK 07 AUDIO
    TITLE "«Schwanengesang», D. 957: Nr. 6. «In der Ferne»"
    PERFORMER "Matthias Goerne (baritone), Christoph Eschenbach (piano)"
    REM DATE 2010
    INDEX 01 00:00:00
    FILE "08 - Schwanengesang, D. 957 - Nr. 7. Abschied.flac" WAVE
    TRACK 08 AUDIO
    TITLE "«Schwanengesang», D. 957: Nr. 7. «Abschied»"
    PERFORMER "Matthias Goerne (baritone), Christoph Eschenbach (piano)"
    REM DATE 2010
    INDEX 01 00:00:00
    FILE "09 - Schwanengesang, D. 957 - Nr. 8. Der Atlas.flac" WAVE
    TRACK 09 AUDIO
    TITLE "«Schwanengesang», D. 957: Nr. 8. «Der Atlas»"
    PERFORMER "Matthias Goerne (baritone), Christoph Eschenbach (piano)"
    REM DATE 2010
    INDEX 01 00:00:00
    FILE "10 - Schwanengesang, D. 957 - Nr. 9. Ihr Bild.flac" WAVE
    TRACK 10 AUDIO
    TITLE "«Schwanengesang», D. 957: Nr. 9. «Ihr Bild»"
    PERFORMER "Matthias Goerne (baritone), Christoph Eschenbach (piano)"
    REM DATE 2010
    INDEX 01 00:00:00
    FILE "11 - Schwanengesang, D. 957 - Nr. 10. Das Fischermaedchen.flac" WAVE
    TRACK 11 AUDIO
    TITLE "«Schwanengesang», D. 957: Nr. 10. «Das Fischermädchen»"
    PERFORMER "Matthias Goerne (baritone), Christoph Eschenbach (piano)"
    REM DATE 2010
    INDEX 01 00:00:00
    FILE "12 - Schwanengesang, D. 957 - Nr. 11. Die Stadt.flac" WAVE
    TRACK 12 AUDIO
    TITLE "«Schwanengesang», D. 957: Nr. 11. «Die Stadt»"
    PERFORMER "Matthias Goerne (baritone), Christoph Eschenbach (piano)"
    REM DATE 2010
    INDEX 01 00:00:00
    FILE "13 - Schwanengesang, D. 957 - Nr. 12. Am Meer.flac" WAVE
    TRACK 13 AUDIO
    TITLE "«Schwanengesang», D. 957: Nr. 12. «Am Meer»"
    PERFORMER "Matthias Goerne (baritone), Christoph Eschenbach (piano)"
    REM DATE 2010
    INDEX 01 00:00:00
    FILE "14 - Schwanengesang, D. 957 - Nr. 13. Der Doppelgaenger.flac" WAVE
    TRACK 14 AUDIO
    TITLE "«Schwanengesang», D. 957: Nr. 13. «Der Doppelgänger»"
    PERFORMER "Matthias Goerne (baritone), Christoph Eschenbach (piano)"
    REM DATE 2010
    INDEX 01 00:00:00
    FILE "15 - Schwanengesang, D. 957 - Nr. 14. Die Taubenpost.flac" WAVE
    TRACK 15 AUDIO
    TITLE "«Schwanengesang», D. 957: Nr. 14. «Die Taubenpost»"
    PERFORMER "Matthias Goerne (baritone), Christoph Eschenbach (piano)"
    REM DATE 2010
    INDEX 01 00:00:00

    CD 2: Klaviersonate Nr. 21, D. 960

    TITLE "Matthias Goerne Schubert Edition. Volume 6"
    PERFORMER "Christoph Eschenbach"
    REM GENRE Classical
    REM DISCID 290B8D04
    REM COMMENT "ExactAudioCopy v1.0b3"
    FILE "01 - Klaviersonate Nr. 21, D. 960 - I. Molto moderato.flac" WAVE
    TRACK 01 AUDIO
    TITLE "Klaviersonate Nr. 21 B-dur, D. 960: I. Molto moderato"
    PERFORMER "Christoph Eschenbach (piano)"
    REM DATE 2011
    INDEX 01 00:00:00
    FILE "02 - Klaviersonate Nr. 21, D. 960 - II. Andante sostenuto.flac" WAVE
    TRACK 02 AUDIO
    TITLE "Klaviersonate Nr. 21 B-dur, D. 960: II. Andante sostenuto"
    PERFORMER "Christoph Eschenbach (piano)"
    REM DATE 2011
    INDEX 01 00:00:00
    FILE "03 - Klaviersonate Nr. 21, D. 960 - III. Scherzo. Allegro vivace con delicatezza.flac" WAVE
    TRACK 03 AUDIO
    TITLE "Klaviersonate Nr. 21 B-dur, D. 960: III. Scherzo: Allegro vivace con delicatezza"
    PERFORMER "Christoph Eschenbach (piano)"
    REM DATE 2011
    INDEX 01 00:00:00
    FILE "04 - Klaviersonate Nr. 21, D. 960 - IV. Allegro, ma non troppo.flac" WAVE
    TRACK 04 AUDIO
    TITLE "Klaviersonate Nr. 21 B-dur, D. 960: IV. Allegro, ma non troppo"
    PERFORMER "Christoph Eschenbach (piano)"
    REM DATE 2011
    INDEX 01 00:00:00
    -
    Matthias Goerne Schubert Edition — все раздачиFranz Schubert — каталог раздач на rutracker.orgВсе мои раздачи / All my releases



  • Показать сообщения:    

    Текущее время: 05-Дек 23:39

    Часовой пояс: UTC + 3


    Вы не можете начинать темы
    Вы не можете отвечать на сообщения
    Вы не можете редактировать свои сообщения
    Вы не можете удалять свои сообщения
    Вы не можете голосовать в опросах
    Вы не можете прикреплять файлы к сообщениям
    Вы не можете скачивать файлы