(Classical / Vocal) Matthias Goerne Schubert Edition, Volume 1: «Sehnsucht» (Matthias Goerne, Elisabeth Leonskaja / Маттиас Герне, Елизавета Леонская, 2007) - 2008, FLAC (tracks+.cue) lossless


 

[Цитировать]

Franz Schubert | Франц Шуберт
(1797–1828)



Matthias Goerne Schubert Edition
Volume 1. «Sehnsucht»



Matthias Goerne baritoneЕлизавета Леонская piano


Жанр: Classical / Vocal
Дата и место записи: Teldex Studio, Berlin, February & March 2007
Формат записи: DDD, Stereo
Год издания диска: 2008
Издатель (лейбл): Harmonia Mundi
Номер по каталогу: HMC 901988
Аудиокодек: FLAC
Тип рипа: tracks+.cue
Битрейт аудио: lossless
Продолжительность: 1:05:04
Наличие сканов в содержимом раздачи: нет
Источник: What.CD
Релизёр: Wolo


Tracklist / Треклист
Fahrt zum Hades (Mayrhofer), D. 526 - 4:50
  • Freiwilliges Versinken (Mayrhofer), D. 700 - 3:45
  • Das Weinen (Leitner), D. 926 - 4:22
  • Des Fischers Liebesglück (Leitner), D. 933 - 7:15
  • Der Winterabend (Leitner), D. 938 - 7:02
  • Memnon (Mayrhofer), D. 541 - 4:11
  • Lied eines Schiffers an die Dioskuren (Mayrhofer), D. 360 - 3:00
  • Der Schiffer (Mayrhofer), D. 536 - 1:54
  • Sehnsucht (Schiller), D. 636 - 4:11
  • Der Jüngling am Bache (Schiller), D. 638 - 4:54
  • An Emma (Schiller), D. 113 - 2:37
  • Der Pilgrim (Schiller), D. 794 - 4:32
  • Gruppe aus dem Tartarus (Schiller), D. 583 - 3:24
  • Hoffnung (Goethe), D. 295 - 1:31
  • Grenzen der Menschheit (Goethe), D. 716 - 7:36

    -

    EAC log / Отчёт EAC

    Exact Audio Copy V1.0 beta 3 from 29. August 2011
    EAC extraction logfile from 5. November 2011, 22:46
    Franz Schubert / Sehnsucht
    Used drive : TSSTcorpCDDVDW TS-L633C Adapter: 2 ID: 0
    Read mode : Secure
    Utilize accurate stream : Yes
    Defeat audio cache : Yes
    Make use of C2 pointers : No
    Read offset correction : 6
    Overread into Lead-In and Lead-Out : No
    Fill up missing offset samples with silence : Yes
    Delete leading and trailing silent blocks : No
    Null samples used in CRC calculations : Yes
    Used interface : Native Win32 interface for Win NT & 2000
    Gap handling : Appended to previous track
    Used output format : User Defined Encoder
    Selected bitrate : 128 kBit/s
    Quality : High
    Add ID3 tag : No
    Command line compressor : C:\Program Files (x86)\Exact Audio Copy\Flac\flac.exe
    Additional command line options : -8 -V -T "ARTIST=%artist%" -T "TITLE=%title%" -T "ALBUM=%albumtitle%" -T "DATE=%year%" -T "TRACKNUMBER=%tracknr%" -T "GENRE=%genre%" -T "PERFORMER=%albuminterpret%" -T "COMPOSER=%composer%" %haslyrics%--tag-from-file=LYRICS="%lyricsfile%"%haslyrics% -T "ALBUMARTIST=%albumartist%" -T "ALBUM ARTIST=%albumartist%" -T "DISCNUMBER=%cdnumber%" -T "TOTALDISCS=%totalcds%" -T "TOTALTRACKS=%numtracks%" -T "COMMENT=EAC V1.0 beta 2, Secure Mode, Test & Copy, AccurateRip, FLAC -8" %source% -o %dest%
    TOC of the extracted CD
    Track | Start | Length | Start sector | End sector
    ---------------------------------------------------------
    1 | 0:00.00 | 4:49.57 | 0 | 21731
    2 | 4:49.57 | 3:44.43 | 21732 | 38574
    3 | 8:34.25 | 4:21.50 | 38575 | 58199
    4 | 12:56.00 | 7:15.37 | 58200 | 90861
    5 | 20:11.37 | 7:02.14 | 90862 | 122525
    6 | 27:13.51 | 4:11.15 | 122526 | 141365
    7 | 31:24.66 | 3:00.13 | 141366 | 154878
    8 | 34:25.04 | 1:54.14 | 154879 | 163442
    9 | 36:19.18 | 4:10.44 | 163443 | 182236
    10 | 40:29.62 | 4:54.01 | 182237 | 204287
    11 | 45:23.63 | 2:37.06 | 204288 | 216068
    12 | 48:00.69 | 4:32.35 | 216069 | 236503
    13 | 52:33.29 | 3:24.10 | 236504 | 251813
    14 | 55:57.39 | 1:30.41 | 251814 | 258604
    15 | 57:28.05 | 7:35.68 | 258605 | 292797
    Track 1
    Filename G:\EACRIPS\Franz Schubert - Sehnsucht (2008) [FLAC]\01. Fahrt zum Hades, D.526.wav
    Pre-gap length 0:00:02.00
    Peak level 70.4 %
    Extraction speed 2.3 X
    Track quality 100.0 %
    Test CRC D923BDE0
    Copy CRC D923BDE0
    Accurately ripped (confidence 2) [C3885FD0] (AR v2)
    Copy OK
    Track 2
    Filename G:\EACRIPS\Franz Schubert - Sehnsucht (2008) [FLAC]\02. Freiwilliges Versinken, D.700.wav
    Peak level 92.8 %
    Extraction speed 2.5 X
    Track quality 100.0 %
    Test CRC 2F12CA12
    Copy CRC 2F12CA12
    Accurately ripped (confidence 2) [B4A4C985] (AR v2)
    Copy OK
    Track 3
    Filename G:\EACRIPS\Franz Schubert - Sehnsucht (2008) [FLAC]\03. Das Weinen, D.926.wav
    Peak level 59.7 %
    Extraction speed 2.8 X
    Track quality 100.0 %
    Test CRC 24F494FD
    Copy CRC 24F494FD
    Accurately ripped (confidence 2) [F2207B18] (AR v2)
    Copy OK
    Track 4
    Filename G:\EACRIPS\Franz Schubert - Sehnsucht (2008) [FLAC]\04. Des Fischers Liebesglück, D.933.wav
    Peak level 31.1 %
    Extraction speed 3.2 X
    Track quality 100.0 %
    Test CRC 22A23C30
    Copy CRC 22A23C30
    Accurately ripped (confidence 2) [4EC1D2C4] (AR v2)
    Copy OK
    Track 5
    Filename G:\EACRIPS\Franz Schubert - Sehnsucht (2008) [FLAC]\05. Der Winterabend, D.938.wav
    Peak level 39.0 %
    Extraction speed 3.5 X
    Track quality 100.0 %
    Test CRC 8A8AF80D
    Copy CRC 8A8AF80D
    Accurately ripped (confidence 2) [FCCC3787] (AR v2)
    Copy OK
    Track 6
    Filename G:\EACRIPS\Franz Schubert - Sehnsucht (2008) [FLAC]\06. Memnon, D.541.wav
    Peak level 71.1 %
    Extraction speed 3.4 X
    Track quality 100.0 %
    Test CRC 81D0B30A
    Copy CRC 81D0B30A
    Accurately ripped (confidence 2) [3E64AB2B] (AR v2)
    Copy OK
    Track 7
    Filename G:\EACRIPS\Franz Schubert - Sehnsucht (2008) [FLAC]\07. Lied eines Schiffers an die Dioskuren, D.360.wav
    Peak level 82.5 %
    Extraction speed 3.4 X
    Track quality 100.0 %
    Test CRC 9AE8B403
    Copy CRC 9AE8B403
    Accurately ripped (confidence 2) [93D19136] (AR v2)
    Copy OK
    Track 8
    Filename G:\EACRIPS\Franz Schubert - Sehnsucht (2008) [FLAC]\08. Der Schiffer, D.536.wav
    Peak level 64.5 %
    Extraction speed 2.2 X
    Track quality 99.9 %
    Test CRC 2F12401E
    Copy CRC 2F12401E
    Accurately ripped (confidence 2) [D34C7825] (AR v2)
    Copy OK
    Track 9
    Filename G:\EACRIPS\Franz Schubert - Sehnsucht (2008) [FLAC]\09. Sehnsucht, D.636.wav
    Peak level 85.6 %
    Extraction speed 3.8 X
    Track quality 100.0 %
    Test CRC 3ED35119
    Copy CRC 3ED35119
    Accurately ripped (confidence 2) [EB8071C9] (AR v2)
    Copy OK
    Track 10
    Filename G:\EACRIPS\Franz Schubert - Sehnsucht (2008) [FLAC]\10. Der Jüngling am Bache, D.638.wav
    Peak level 58.6 %
    Extraction speed 4.0 X
    Track quality 100.0 %
    Test CRC B7E30038
    Copy CRC B7E30038
    Accurately ripped (confidence 2) [684A6AF2] (AR v2)
    Copy OK
    Track 11
    Filename G:\EACRIPS\Franz Schubert - Sehnsucht (2008) [FLAC]\11. An Emma, D.113.wav
    Peak level 62.4 %
    Extraction speed 3.8 X
    Track quality 100.0 %
    Test CRC 6B73C7A7
    Copy CRC 6B73C7A7
    Accurately ripped (confidence 2) [1CD29469] (AR v2)
    Copy OK
    Track 12
    Filename G:\EACRIPS\Franz Schubert - Sehnsucht (2008) [FLAC]\12. Der Pilgrim, D.794.wav
    Peak level 74.8 %
    Extraction speed 4.1 X
    Track quality 100.0 %
    Test CRC 7F1A9583
    Copy CRC 7F1A9583
    Accurately ripped (confidence 2) [CEC67AEB] (AR v2)
    Copy OK
    Track 13
    Filename G:\EACRIPS\Franz Schubert - Sehnsucht (2008) [FLAC]\13. Gruppe aus dem Tartarus, D.583.wav
    Peak level 99.8 %
    Extraction speed 4.1 X
    Track quality 100.0 %
    Test CRC ABD91034
    Copy CRC ABD91034
    Accurately ripped (confidence 2) [E80EF78D] (AR v2)
    Copy OK
    Track 14
    Filename G:\EACRIPS\Franz Schubert - Sehnsucht (2008) [FLAC]\14. Hoffnung, D.295.wav
    Peak level 40.8 %
    Extraction speed 3.5 X
    Track quality 100.0 %
    Test CRC C0D17429
    Copy CRC C0D17429
    Accurately ripped (confidence 2) [9AAEAC40] (AR v2)
    Copy OK
    Track 15
    Filename G:\EACRIPS\Franz Schubert - Sehnsucht (2008) [FLAC]\15. Grenzen der Menschenheit, D.716.wav
    Peak level 92.6 %
    Extraction speed 4.8 X
    Track quality 100.0 %
    Test CRC 29FA52F9
    Copy CRC 29FA52F9
    Accurately ripped (confidence 2) [F093F64D] (AR v2)
    Copy OK
    All tracks accurately ripped
    No errors occurred
    End of status report
    ---- CUETools DB Plugin V2.1.3
    [CTDB TOCID: gsgHAkNdR06xThwBYjrmvlOOTgo-] disk not present in database, Submit result: gsgHAkNdR06xThwBYjrmvlOOTgo- has been uploaded
    ==== Log checksum 6B89FE0D042491F29BFC1C2CAED154A9ED4048AF4C9F2477E580AC2912A3C409 ====

    auCDtect Task Manager log / Отчёт auCDtect Task Manager

    -----------------------
    DON'T MODIFY THIS FILE
    -----------------------
    PERFORMER: auCDtect Task Manager, ver. 1.5.1RC3 build 1.5.1.4
    Copyright (c) 2008-2010 y-soft. All rights reserved
    ANALYZER: auCDtect: CD records authenticity detector, version 0.8.2
    Copyright (c) 2004 Oleg Berngardt. All rights reserved.
    Copyright (c) 2004 Alexander Djourik. All rights reserved.
    FILE: 06 - Memnon (Mayrhofer), D. 541.flac
    Size: 13483689 Hash: 4AD9C4A01BB8326734D261E929659463 Accuracy: -m0
    Conclusion: CDDA 100%
    Signature: CA8DA9C5A3805643FB6DF415C30B3143D258E492
    FILE: 05 - Der Winterabend (Leitner), D. 938.flac
    Size: 21990387 Hash: 4AA11E14CD7B7CF643FEEAE1C2B158E2 Accuracy: -m0
    Conclusion: CDDA 100%
    Signature: 9EB4D6A2896001929E95AF45FD95DD1E92870115
    FILE: 04 - Des Fischers Liebesglueck (Leitner), D. 933.flac
    Size: 20692111 Hash: FE3B3C8C8DBC66C5580F304F1DCF61EC Accuracy: -m0
    Conclusion: CDDA 99%
    Signature: E462787E70FC6D491154113742F59D99AD199260
    FILE: 03 - Das Weinen (Leitner), D. 926.flac
    Size: 14769168 Hash: D74755CD5FC88D11E9DD3E873FC76C7F Accuracy: -m0
    Conclusion: CDDA 100%
    Signature: B5FB7BEE64E05F0B074628E4136714471D38B794
    FILE: 02 - Freiwilliges Versinken (Mayrhofer), D. 700.flac
    Size: 12543158 Hash: 00D260EB253B7AF02563C81DC46A0E31 Accuracy: -m0
    Conclusion: CDDA 100%
    Signature: 288B52F6E00F8E1F1FEA7C9D1D823C6B325A1E44
    FILE: 01 - Fahrt zum Hades (Mayrhofer), D. 526.flac
    Size: 16910141 Hash: 7D61780E49109BDC3F3B6A3EC2CC2DF7 Accuracy: -m0
    Conclusion: CDDA 100%
    Signature: FF607DC64AE26B78EBCE384C0C4E62EEEB6C5522
    FILE: 15 - Grenzen der Menschheit (Goethe), D. 716.flac
    Size: 24255514 Hash: 333B8E03EF6BD097AB79F7A60B1E6460 Accuracy: -m0
    Conclusion: CDDA 99%
    Signature: 3F84DA01F149BC27B69EB40D962610EECCB63509
    FILE: 14 - Hoffnung (Goethe), D. 295.flac
    Size: 5045838 Hash: 4FAB3854F162BC1DC862A67E1078205C Accuracy: -m0
    Conclusion: CDDA 100%
    Signature: E1A666CCA60A80B19C939F9D030AE029B56DFCD9
    FILE: 13 - Gruppe aus dem Tartarus (Schiller), D. 583.flac
    Size: 12857112 Hash: 44DE5B8B83C35D9B4F2C44A32F583E64 Accuracy: -m0
    Conclusion: CDDA 100%
    Signature: 10C42647BD85D119257C55BC865980FDC880FAAB
    FILE: 12 - Der Pilgrim (Schiller), D. 794.flac
    Size: 15901470 Hash: E9F3CE63C4CE3C2EF8A2F84E129538E7 Accuracy: -m0
    Conclusion: CDDA 99%
    Signature: 9848EA4D2DF43F14EC342251C03F8AA712EF9CE2
    FILE: 11 - An Emma (Schiller), D. 113.flac
    Size: 8865420 Hash: 0192B954EDA36F7AAA266CBD2FD9E2C0 Accuracy: -m0
    Conclusion: CDDA 100%
    Signature: 57D3553D14E16918E87F18E7B9390CC426AAEBC4
    FILE: 10 - Der Juengling am Bache (Schiller), D. 638.flac
    Size: 17183736 Hash: 7679651D41BC36B04207951884132A93 Accuracy: -m0
    Conclusion: CDDA 100%
    Signature: 91FC9D6E8050A36C8325A432CB85E70299DAB7F3
    FILE: 09 - Sehnsucht (Schiller), D. 636.flac
    Size: 15259190 Hash: 7B2557C4FE1EFB022AC26BB679C9131A Accuracy: -m0
    Conclusion: CDDA 100%
    Signature: CD1236395756B975848DA3D827BAFF3A10A7879C
    FILE: 08 - Der Schiffer (Mayrhofer), D. 536.flac
    Size: 8194421 Hash: D4681EA4C7DAEB292BFDC14AA872492E Accuracy: -m0
    Conclusion: CDDA 100%
    Signature: D546A82F8F4D2FCD0E6D2879BFA13619516EEF68
    FILE: 07 - Lied eines Schiffers an die Dioskuren (Mayrhofer), D. 360.flac
    Size: 9712049 Hash: 407EC178A3CB110CF0A431F41ADAF466 Accuracy: -m0
    Conclusion: CDDA 100%
    Signature: 0A92B228B4E5D7364A7901C65E93E4B2D1931ED5

    CUETools log / Отчёт CUETools

    [CUETools log; Date: 09.11.2013 14:02:44; Version: 2.1.4]
    [AccurateRip ID: 0025236a-019d9f7a-d40f3f0f] found.
    Track [ CRC | V2 ] Status
    01 [8d1c6c9d|c3885fd0] (11+11/22) Accurately ripped
    02 [fda90a99|b4a4c985] (11+11/22) Accurately ripped
    03 [6c519877|f2207b18] (11+11/22) Accurately ripped
    04 [e9bda305|4ec1d2c4] (11+11/22) Accurately ripped
    05 [b58fa579|fccc3787] (11+11/22) Accurately ripped
    06 [637c38b6|3e64ab2b] (11+11/22) Accurately ripped
    07 [642cea24|93d19136] (11+11/22) Accurately ripped
    08 [c446dbd6|d34c7825] (11+11/22) Accurately ripped
    09 [c4a46433|eb8071c9] (11+11/22) Accurately ripped
    10 [f2e28b1c|684a6af2] (11+11/22) Accurately ripped
    11 [439b9b20|1cd29469] (11+11/22) Accurately ripped
    12 [ebca5498|cec67aeb] (11+11/22) Accurately ripped
    13 [89400b40|e80ef78d] (11+11/22) Accurately ripped
    14 [c742a53e|9aaeac40] (11+11/22) Accurately ripped
    15 [d4dd55ab|f093f64d] (11+11/22) Accurately ripped
    Track Peak [ CRC32 ] [W/O NULL] [ LOG ]
    -- 99,8 [DD558498] [A146AE71]
    01 70,4 [D923BDE0] [0DC1E02D] CRC32
    02 92,8 [2F12CA12] [6DCE6BA4] CRC32
    03 59,7 [24F494FD] [3E26314F] CRC32
    04 31,1 [22A23C30] [B5B747B9] CRC32
    05 39,0 [8A8AF80D] [3EE903F5] CRC32
    06 71,1 [81D0B30A] [966B273B] CRC32
    07 82,5 [9AE8B403] [4E781929] CRC32
    08 64,5 [2F12401E] [1BF72362] CRC32
    09 85,6 [3ED35119] [AACB8FB7] CRC32
    10 58,6 [B7E30038] [9207F470] CRC32
    11 62,4 [6B73C7A7] [C4C2E985] CRC32
    12 74,8 [7F1A9583] [C8EFD820] CRC32
    13 99,8 [ABD91034] [95738C03] CRC32
    14 40,8 [C0D17429] [335F4D20] CRC32
    15 92,6 [29FA52F9] [9908ECF0] CRC32

    CUE sheet

    TITLE "Matthias Goerne Schubert Edition. Volume 1"
    PERFORMER "Matthias Goerne"
    REM GENRE Classical
    REM DISCID D40F3F0F
    REM COMMENT "ExactAudioCopy v1.0b3"
    FILE "01 - Fahrt zum Hades (Mayrhofer), D. 526.flac" WAVE
    TRACK 01 AUDIO
    TITLE "Fahrt zum Hades (Mayrhofer), D. 526"
    PERFORMER "Matthias Goerne (baritone), Elisabeth Leonskaja (piano)"
    REM DATE 2007
    INDEX 01 00:00:00
    FILE "02 - Freiwilliges Versinken (Mayrhofer), D. 700.flac" WAVE
    TRACK 02 AUDIO
    TITLE "Freiwilliges Versinken (Mayrhofer), D. 700"
    PERFORMER "Matthias Goerne (baritone), Elisabeth Leonskaja (piano)"
    REM DATE 2007
    INDEX 01 00:00:00
    FILE "03 - Das Weinen (Leitner), D. 926.flac" WAVE
    TRACK 03 AUDIO
    TITLE "Das Weinen (Leitner), D. 926"
    PERFORMER "Matthias Goerne (baritone), Elisabeth Leonskaja (piano)"
    REM DATE 2007
    INDEX 01 00:00:00
    FILE "04 - Des Fischers Liebesglueck (Leitner), D. 933.flac" WAVE
    TRACK 04 AUDIO
    TITLE "Des Fischers Liebesglück (Leitner), D. 933"
    PERFORMER "Matthias Goerne (baritone), Elisabeth Leonskaja (piano)"
    REM DATE 2007
    INDEX 01 00:00:00
    FILE "05 - Der Winterabend (Leitner), D. 938.flac" WAVE
    TRACK 05 AUDIO
    TITLE "Der Winterabend (Leitner), D. 938"
    PERFORMER "Matthias Goerne (baritone), Elisabeth Leonskaja (piano)"
    REM DATE 2007
    INDEX 01 00:00:00
    FILE "06 - Memnon (Mayrhofer), D. 541.flac" WAVE
    TRACK 06 AUDIO
    TITLE "Memnon (Mayrhofer), D. 541"
    PERFORMER "Matthias Goerne (baritone), Elisabeth Leonskaja (piano)"
    REM DATE 2007
    INDEX 01 00:00:00
    FILE "07 - Lied eines Schiffers an die Dioskuren (Mayrhofer), D. 360.flac" WAVE
    TRACK 07 AUDIO
    TITLE "Lied eines Schiffers an die Dioskuren (Mayrhofer), D. 360"
    PERFORMER "Matthias Goerne (baritone), Elisabeth Leonskaja (piano)"
    REM DATE 2007
    INDEX 01 00:00:00
    FILE "08 - Der Schiffer (Mayrhofer), D. 536.flac" WAVE
    TRACK 08 AUDIO
    TITLE "Der Schiffer (Mayrhofer), D. 536"
    PERFORMER "Matthias Goerne (baritone), Elisabeth Leonskaja (piano)"
    REM DATE 2007
    INDEX 01 00:00:00
    FILE "09 - Sehnsucht (Schiller), D. 636.flac" WAVE
    TRACK 09 AUDIO
    TITLE "Sehnsucht (Schiller), D. 636"
    PERFORMER "Matthias Goerne (baritone), Elisabeth Leonskaja (piano)"
    REM DATE 2007
    INDEX 01 00:00:00
    FILE "10 - Der Juengling am Bache (Schiller), D. 638.flac" WAVE
    TRACK 10 AUDIO
    TITLE "Der Jüngling am Bache (Schiller), D. 638"
    PERFORMER "Matthias Goerne (baritone), Elisabeth Leonskaja (piano)"
    REM DATE 2007
    INDEX 01 00:00:00
    FILE "11 - An Emma (Schiller), D. 113.flac" WAVE
    TRACK 11 AUDIO
    TITLE "An Emma (Schiller), D. 113"
    PERFORMER "Matthias Goerne (baritone), Elisabeth Leonskaja (piano)"
    REM DATE 2007
    INDEX 01 00:00:00
    FILE "12 - Der Pilgrim (Schiller), D. 794.flac" WAVE
    TRACK 12 AUDIO
    TITLE "Der Pilgrim (Schiller), D. 794"
    PERFORMER "Matthias Goerne (baritone), Elisabeth Leonskaja (piano)"
    REM DATE 2007
    INDEX 01 00:00:00
    FILE "13 - Gruppe aus dem Tartarus (Schiller), D. 583.flac" WAVE
    TRACK 13 AUDIO
    TITLE "Gruppe aus dem Tartarus (Schiller), D. 583"
    PERFORMER "Matthias Goerne (baritone), Elisabeth Leonskaja (piano)"
    REM DATE 2007
    INDEX 01 00:00:00
    FILE "14 - Hoffnung (Goethe), D. 295.flac" WAVE
    TRACK 14 AUDIO
    TITLE "Hoffnung (Goethe), D. 295"
    PERFORMER "Matthias Goerne (baritone), Elisabeth Leonskaja (piano)"
    REM DATE 2007
    INDEX 01 00:00:00
    FILE "15 - Grenzen der Menschheit (Goethe), D. 716.flac" WAVE
    TRACK 15 AUDIO
    TITLE "Grenzen der Menschheit (Goethe), D. 716"
    PERFORMER "Matthias Goerne (baritone), Elisabeth Leonskaja (piano)"
    REM DATE 2007
    INDEX 01 00:00:00
    -
    Matthias Goerne Schubert Edition — все раздачиFranz Schubert — каталог раздач на rutracker.orgВсе мои раздачи / All my releases



  • Показать сообщения:    

    Текущее время: 08-Дек 17:19

    Часовой пояс: UTC + 3


    Вы не можете начинать темы
    Вы не можете отвечать на сообщения
    Вы не можете редактировать свои сообщения
    Вы не можете удалять свои сообщения
    Вы не можете голосовать в опросах
    Вы не можете прикреплять файлы к сообщениям
    Вы не можете скачивать файлы