(Classical, sacred) Rene Drouard de Bousset - Cantates spirituelles - Le Tendre Amour - 2013, FLAC (image+.cue) lossless


 

[Цитировать]

René Drouard de Bousset - Cantates spirituelles - Le Tendre Amour
Жанр: Classical, sacred
Год издания диска: 2013
Издатель (лейбл): Brilliant Classics
Номер по каталогу: 94288
Дата записи: 2012
Аудиокодек: FLAC
Тип рипа: image+.cue
Битрейт аудио: lossless
Продолжительность: 55:09
Источник: собственный рип
Наличие сканов в содержимом раздачи: да
Треклист:
René Drouard de Bousset (1703 - 1760)
Cantates spirituelles
[1]-[6] Le Naufrage de Pharaon
[7]-[10] Sixième Cantate Tirée du Pseaume 147
[11]-[14] Premiere Cantate Tirée du Pseaume 83
[15]-[19] Abraham
Исполнители:
Le Tendre Amour
Michiko Takahashi soprano
Bernhard Hansky baritone
Sébastien Perrin traverso
María Gomis, Adriana Alcaide violin
Katy Elkin oboe
Lixsania Fernández viola da gamba
Krishnasol Jiménez theorbo
Esteban Mazer harpsichord

Лог создания рипа

Exact Audio Copy V1.0 beta 3 from 29. August 2011
EAC extraction logfile from 9. October 2013, 12:12
Le Tendre Amour / De Bousset - Cantates Spirituelles
Used drive : HL-DT-STDVDRRW GWA-4164B Adapter: 5 ID: 0
Read mode : Secure
Utilize accurate stream : Yes
Defeat audio cache : Yes
Make use of C2 pointers : No
Read offset correction : 102
Overread into Lead-In and Lead-Out : No
Fill up missing offset samples with silence : Yes
Delete leading and trailing silent blocks : No
Null samples used in CRC calculations : Yes
Used interface : Native Win32 interface for Win NT & 2000
Used output format : User Defined Encoder
Selected bitrate : 896 kBit/s
Quality : High
Add ID3 tag : No
Command line compressor : C:\Program Files\Exact Audio Copy\FLAC\FLAC.EXE
Additional command line options : -V -8 %source%
TOC of the extracted CD
Track | Start | Length | Start sector | End sector
---------------------------------------------------------
1 | 0:00.00 | 2:36.44 | 0 | 11743
2 | 2:36.44 | 3:22.59 | 11744 | 26952
3 | 5:59.28 | 0:56.42 | 26953 | 31194
4 | 6:55.70 | 4:27.21 | 31195 | 51240
5 | 11:23.16 | 1:01.16 | 51241 | 55831
6 | 12:24.32 | 4:51.29 | 55832 | 77685
7 | 17:15.61 | 3:04.22 | 77686 | 91507
8 | 20:20.08 | 2:50.70 | 91508 | 104327
9 | 23:11.03 | 1:28.63 | 104328 | 110990
10 | 24:39.66 | 4:48.70 | 110991 | 132660
11 | 29:28.61 | 1:16.63 | 132661 | 138423
12 | 30:45.49 | 6:12.41 | 138424 | 166364
13 | 36:58.15 | 1:00.57 | 166365 | 170921
14 | 37:58.72 | 3:20.40 | 170922 | 185961
15 | 41:19.37 | 3:20.64 | 185962 | 201025
16 | 44:40.26 | 1:45.44 | 201026 | 208944
17 | 46:25.70 | 4:46.54 | 208945 | 230448
18 | 51:12.49 | 0:48.73 | 230449 | 234121
19 | 52:01.47 | 3:08.18 | 234122 | 248239
Range status and errors
Selected range
Filename D:\temp\Music\De Bousset - Cantates Spirituelles\De Bousset - Cantates Spirituelles.wav
Peak level 100.0 %
Extraction speed 2.7 X
Range quality 100.0 %
Test CRC 69FF3DD8
Copy CRC 69FF3DD8
Copy OK
No errors occurred
AccurateRip summary
Track 1 not present in database
Track 2 not present in database
Track 3 not present in database
Track 4 not present in database
Track 5 not present in database
Track 6 not present in database
Track 7 not present in database
Track 8 not present in database
Track 9 not present in database
Track 10 not present in database
Track 11 not present in database
Track 12 not present in database
Track 13 not present in database
Track 14 not present in database
Track 15 not present in database
Track 16 not present in database
Track 17 not present in database
Track 18 not present in database
Track 19 not present in database
None of the tracks are present in the AccurateRip database
End of status report
==== Log checksum 7327BEB1ECA59DBE449305CE23A6BB81E06BC0BD928D9DD267CE9D7B7F9A452A ====



Показать сообщения:    

Текущее время: 10-Дек 11:54

Часовой пояс: UTC + 3


Вы не можете начинать темы
Вы не можете отвечать на сообщения
Вы не можете редактировать свои сообщения
Вы не можете удалять свои сообщения
Вы не можете голосовать в опросах
Вы не можете прикреплять файлы к сообщениям
Вы не можете скачивать файлы