Дэвид Линч. Американский портрет / Portrait americain: David Lynch / David Lynch. An American Portrait (Бернар Фару / Bernard Faroux, Валентин Гай / Valentine Gay) [2007, фильм-портрет, кинематограф, DVB] DVO (Видеопродакшн)


Статистика раздачи [Обновить пиров]
Размер:  634 MB   |    Зарегистрирован:  8 месяцев 24 дня   |    Скачан:  0 раз

Полного источника не было: Никогда

 
   
 
 
 

[Цитировать]

Дэвид Линч. Американский портрет
Portrait américain: David Lynch- Год выпуска: 2007
Страна: Франция
Жанр: фильм-портрет, кинематограф
Продолжительность: 00:21:02
Перевод: Профессиональный (двухголосый закадровый) (Компания "Видеопродакшн")
Русские субтитры: нет
Режиссер: Бернар Фару / Bernard Faroux, Валентин Гай / Valentine Gay
Описание: Фильм посвящен творчеству американского кинорежиссера Дэвида Линча. В Лос-Анджелесе и Париже французский журналист и музыкант Ариэль Визман ведет разговор с режиссером, чье творчество ассоциируется с современной Америкой. Через отрывки его ранних короткометражек и культовых фильмов, живописные и фото- работы будет раскрываться портрет необычной личности, посвятившей себя изучению психики посредством трансцендентальной медитации. В заключение два небольших интервью с актрисами Наоми Уоттс и Лаурой Харринг на съемках фильма "Малхолланд Драйв".
Доп. информация: Запись со спутника (телеканал "Кто есть кто").
[box]http://www.imdb.com/title/tt1047662/[/box]
Сэмпл: http://multi-up.com/922012
качество: DVB
формат: MPEG-PS
Видео: MPEG Video 2, 720x576@768x576 (4:3), 25 fps, ~3929 kbps avg, 0.379 bit/pixel
Аудио: 48 kHz, MPEG Audio 2, 2 ch, ~192.00 kbps avg

MediaInfo

Полное имя                               : H:\My Torrents\[apreder]Portrait_americain_David_Lynch(2007)DVB.mpg
Формат : MPEG-PS
Размер файла : 634 Мбайт
Продолжительность : 21 м.
Режим общего битрейта : Переменный
Общий поток : 4205 Кбит/сек
Видео
Идентификатор : 224 (0xE0)
Формат : MPEG Video
Версия формата : Version 2
Профиль формата : Main@Main
Параметр BVOP формата : Да
Параметр матрицы формата : Выборочная
Параметр GOP формата : M=3, N=36
Продолжительность : 21 м.
Вид битрейта : Переменный
Битрейт : 3929 Кбит/сек
Ширина : 720 пикселей
Высота : 576 пикселей
Соотношение сторон : 4:3
Частота кадров : 25,000 кадров/сек
Стандарт вещания : PAL
Цветовое пространство : YUV
Субдискретизация насыщенности : 4:2:0
Битовая глубина : 8 бит
Тип развёртки : Чересстрочная
Порядок развёртки : Верхнее поле первое
Метод сжатия : С потерями
Бит/(Пиксели*Кадры) : 0.379
Временной код первого кадра : 00:00:00:00
Оригинал временного кода : Group of pictures header
Размер потока : 592 Мбайт (93%)
Аудио
Идентификатор : 192 (0xC0)
Формат : MPEG Audio
Версия формата : Version 1
Профиль формата : Layer 2
Продолжительность : 21 м.
Вид битрейта : Постоянный
Битрейт : 192 Кбит/сек
Каналы : 2 канала
Частота : 48,0 КГц
Метод сжатия : С потерями
Размер потока : 28,9 Мбайт (5%)

Скриншоты


Резервные скриншоты


-1'043/1'025√
[teatrix.ru].t17827.torrent 
Торрент: Зарегистрирован [ 2016-03-17 00:49 ] · E4CD9F939CECD35FB55D5CDFA1CE722D86CFA682

Скачать .torrent

Скачать

13 KB

Статус: проверено
Скачан: 0 раз
Размер: 634 MB
terms.php



Показать сообщения:    

Текущее время: 10-Дек 06:07

Часовой пояс: UTC + 3


Вы не можете начинать темы
Вы не можете отвечать на сообщения
Вы не можете редактировать свои сообщения
Вы не можете удалять свои сообщения
Вы не можете голосовать в опросах
Вы не можете прикреплять файлы к сообщениям
Вы можете скачивать файлы