(Classical / Vocal) Matthias Goerne Schubert Edition, Volume 2: «An mein Herz» (Matthias Goerne, Helmut Deutsch, Eric Schneider, 2007/2008) - 2008, FLAC (tracks+.cue) lossless


 

[Цитировать]

Franz Schubert | Франц Шуберт
(1797–1828)



Matthias Goerne Schubert Edition
Volume 2. «An mein Herz»



Matthias Goerne baritoneHelmut Deutsch, Eric Schneider pianos


Жанр: Classical / Vocal
Дата и место записи: Teldex Studio, Berlin, October 2007 & January 2008
Формат записи: DDD, Stereo
Год издания диска: 2008
Издатель (лейбл): Harmonia Mundi
Номер по каталогу: HMC 902004
Аудиокодек: FLAC
Тип рипа: tracks+.cue
Битрейт аудио: lossless
Продолжительность: 2:14:10
Наличие сканов в содержимом раздачи: только обложка
Источник: What.CD
Релизёр: talpaleone

-Tracklist / ТреклистCD 1
Der Jüngling und der Tod (Spaun), D. 545 - 4:06
  • Das Lied im Grünen (Reil), D. 917 - 5:24
  • Wehmut (Die Herbstnacht) (Salis-Seewis), D. 404 - 1:48
  • In's stille Land (Salis-Seewis), D. 403 - 3:23
  • Der Herbstabend (Salis-Seewis), D. 405 - 2:20
  • Drang in die Ferne (Leitner), D. 770 - 2:44
  • An mein Herz (Schulze), D. 860 - 3:00
  • Der Wanderer (Schlegel), D. 649 - 3:53
  • Über Wildemann (Schulze), D. 884 - 2:04
  • Klage (unknown), D. 371 - 2:58
  • Am Bach im Frühling (Schober), D. 361 - 3:54
  • An die Laute (Rochlitz), D. 905 - 2:03
  • Des Fräuleins Liebeslauschen (Schlechta), D. 698 - 4:53
  • Augenlied (Mayrhofer), D. 297 - 2:36
  • Du bist die Ruh (Rückert), D. 776 - 5:38
  • An die Musik (Schober), D. 547 - 2:26
  • An eine Quelle (Claudius), D. 530 - 1:36
  • Der Sänger am Felsen (Pichler), D. 482 - 2:05
  • Abschied von der Harfe (Salis-Seewis), D. 406 - 2:05
  • Liedesend (Mayrhofer), D. 473 - 5:25
    Helmut Deutsch (piano)
    Recorded: Teldex Studio, Berlin, January 2008

    CD 2
    Das Heimweh (Hell), D. 456 - 3:52
  • Auf der Donau (Mayrhofer), D. 553 - 3:06
  • Wie Ulfru fischt (Mayrhofer), D. 525 - 2:08
  • Die Sternennächte (Mayrhofer), D. 670 - 3:47
  • Rückweg (Mayrhofer), D. 476 - 2:02
  • Geheimnis (Mayrhofer), D. 491 - 2:35
  • Gondelfahrer (Mayrhofer), D. 808 - 2:06
  • Abendstern (Mayrhofer), D. 806 - 2:56
  • Der Sieg (Mayrhofer), D. 805 - 3:25
  • Nachtstück (Mayrhofer), D. 672 - 5:55
  • Auflösung (Mayrhofer), D. 807 - 2:31
  • Heiss mich nicht reden (Goethe), D. 877 Nr. 2 - 4:05
  • Nun wer die Sehnsucht kennt (Goethe), D. 877 Nr. 4 - 3:27
  • An Mignon (Goethe), D. 161 - 2:21
    Gesänge des Harfners (Goethe) - 10:46
    I. Wer sich der Einsamkeit ergibt, D. 478 - 3:53
  • III. Wer nie sein Brot mit Tränen aß, D. 480 - 4:35
  • II. An die Türen will ich schleichen, D. 479 - 2:18
    Am Flusse (Goethe), D. 160 - 1:08
  • Nähe des Geliebten (Goethe), D. 162 - 3:14
  • Der Fischer (Goethe), D. 225 - 2:24
  • Auf dem See (Goethe), D. 543 - 3:24
  • Wonne der Wehmut (Goethe), D. 260 - 1:16
  • Willkommen und Abschied (Goethe), D. 767 - 3:22
    Eric Schneider (piano)
    Recorded: Teldex Studio, Berlin, October 2007
    -

    EAC logs / Отчёты EACCD 1

    Exact Audio Copy V1.0 beta 3 from 29. August 2011
    EAC extraction logfile from 23. March 2012, 22:33
    Matthias Goerne / Lieder, Vol.2 "An mein Herz" (CD1)
    Used drive : HL-DT-STDVDRAM GE20LU10 Adapter: 3 ID: 0
    Read mode : Secure
    Utilize accurate stream : Yes
    Defeat audio cache : Yes
    Make use of C2 pointers : No
    Read offset correction : 667
    Overread into Lead-In and Lead-Out : No
    Fill up missing offset samples with silence : Yes
    Delete leading and trailing silent blocks : No
    Null samples used in CRC calculations : Yes
    Used interface : Native Win32 interface for Win NT & 2000
    Gap handling : Appended to previous track
    Used output format : User Defined Encoder
    Selected bitrate : 1024 kBit/s
    Quality : High
    Add ID3 tag : No
    Command line compressor : C:\Programmi\Exact Audio Copy\Flac\flac.exe
    Additional command line options : -8 -V -T "ARTIST=%artist%" -T "TITLE=%title%" -T "ALBUM=%albumtitle%" -T "DATE=%year%" -T "TRACKNUMBER=%tracknr%" -T "GENRE=%genre%" -T "PERFORMER=%albuminterpret%" -T "COMPOSER=%composer%" %haslyrics%--tag-from-file=LYRICS="%lyricsfile%"%haslyrics% -T "ALBUMARTIST=%albumartist%" -T "ALBUM ARTIST=%albumartist%" -T "DISCNUMBER=%cdnumber%" -T "TOTALDISCS=%totalcds%" -T "TOTALTRACKS=%numtracks%" -T "COMMENT=%comment%" %source% -o %dest%
    TOC of the extracted CD
    Track | Start | Length | Start sector | End sector
    ---------------------------------------------------------
    1 | 0:00.00 | 4:06.33 | 0 | 18482
    2 | 4:06.33 | 5:23.55 | 18483 | 42762
    3 | 9:30.13 | 1:47.63 | 42763 | 50850
    4 | 11:18.01 | 3:22.39 | 50851 | 66039
    5 | 14:40.40 | 2:20.29 | 66040 | 76568
    6 | 17:00.69 | 2:43.59 | 76569 | 88852
    7 | 19:44.53 | 2:59.58 | 88853 | 102335
    8 | 22:44.36 | 3:53.13 | 102336 | 119823
    9 | 26:37.49 | 2:04.26 | 119824 | 129149
    10 | 28:42.00 | 2:57.58 | 129150 | 142482
    11 | 31:39.58 | 3:53.46 | 142483 | 160003
    12 | 35:33.29 | 2:03.31 | 160004 | 169259
    13 | 37:36.60 | 4:52.58 | 169260 | 191217
    14 | 42:29.43 | 2:36.12 | 191218 | 202929
    15 | 45:05.55 | 5:38.01 | 202930 | 228280
    16 | 50:43.56 | 2:25.55 | 228281 | 239210
    17 | 53:09.36 | 1:35.65 | 239211 | 246400
    18 | 54:45.26 | 2:04.54 | 246401 | 255754
    19 | 56:50.05 | 2:04.71 | 255755 | 265125
    20 | 58:55.01 | 5:24.42 | 265126 | 289467
    Track 1
    Filename C:\EACrips\01 - Der Jüngling und der Tod, D.545 - Josef von Spaun.wav
    Pre-gap length 0:00:02.00
    Peak level 54.0 %
    Extraction speed 4.3 X
    Track quality 100.0 %
    Test CRC 1EFE33B1
    Copy CRC 1EFE33B1
    Accurately ripped (confidence 2) [05ED9C77] (AR v2)
    Copy OK
    Track 2
    Filename C:\EACrips\02 - Das Lied im Grünen, D.917 - Friedrich Reil.wav
    Peak level 53.2 %
    Extraction speed 4.8 X
    Track quality 100.0 %
    Test CRC BC3CE135
    Copy CRC BC3CE135
    Accurately ripped (confidence 2) [8E60F61F] (AR v2)
    Copy OK
    Track 3
    Filename C:\EACrips\03 - Wehmut (Die Herbstnacht), D.404 - Johann Gaudenz Freiherr von Salis-Seewis.wav
    Peak level 53.8 %
    Extraction speed 4.1 X
    Track quality 100.0 %
    Test CRC 8EF0073D
    Copy CRC 8EF0073D
    Accurately ripped (confidence 2) [9165120D] (AR v2)
    Copy OK
    Track 4
    Filename C:\EACrips\04 - Ins stille Land, D.403 - Johann Gaudenz Freiherr von Salis-Seewis.wav
    Peak level 45.1 %
    Extraction speed 4.1 X
    Track quality 99.9 %
    Test CRC C462B8D8
    Copy CRC C462B8D8
    Accurately ripped (confidence 2) [EAC3B887] (AR v2)
    Copy OK
    Track 5
    Filename C:\EACrips\05 - Der Herbstabend, D.405 - Johann Gaudenz Freiherr von Salis-Seewis.wav
    Peak level 55.4 %
    Extraction speed 3.7 X
    Track quality 99.9 %
    Test CRC 40F1E747
    Copy CRC 40F1E747
    Accurately ripped (confidence 2) [B55F3D68] (AR v2)
    Copy OK
    Track 6
    Filename C:\EACrips\06 - Drang in die Ferne, D.770 - Karl Gottfried von Leitner.wav
    Peak level 89.6 %
    Extraction speed 5.3 X
    Track quality 100.0 %
    Test CRC 06C09EC7
    Copy CRC 06C09EC7
    Accurately ripped (confidence 2) [50A97CAC] (AR v2)
    Copy OK
    Track 7
    Filename C:\EACrips\07 - An mein Herz, D.860 - Ernst Konrad Friedrich Schulze.wav
    Peak level 99.8 %
    Extraction speed 5.4 X
    Track quality 100.0 %
    Test CRC 70F8D2F7
    Copy CRC 70F8D2F7
    Accurately ripped (confidence 2) [8DEFF97D] (AR v2)
    Copy OK
    Track 8
    Filename C:\EACrips\08 - Der Wanderer, D.649 - Friedrich von Schlegel.wav
    Peak level 31.9 %
    Extraction speed 6.0 X
    Track quality 100.0 %
    Test CRC 099435BC
    Copy CRC 099435BC
    Accurately ripped (confidence 2) [0DA91E4C] (AR v2)
    Copy OK
    Track 9
    Filename C:\EACrips\09 - Über Wildemann, D.884 - Ernst Konrad Friedrich Schulze.wav
    Peak level 99.8 %
    Extraction speed 5.4 X
    Track quality 100.0 %
    Test CRC 5340BB32
    Copy CRC 5340BB32
    Accurately ripped (confidence 2) [1CA2C309] (AR v2)
    Copy OK
    Track 10
    Filename C:\EACrips\10 - Klage, D.371 - Anonymous.wav
    Peak level 90.8 %
    Extraction speed 6.0 X
    Track quality 100.0 %
    Test CRC E4086112
    Copy CRC E4086112
    Accurately ripped (confidence 2) [89ACD6B6] (AR v2)
    Copy OK
    Track 11
    Filename C:\EACrips\11 - Am Bach im Frühling, D.361 - Franz von Schober.wav
    Peak level 55.3 %
    Extraction speed 6.4 X
    Track quality 100.0 %
    Test CRC EE3EF566
    Copy CRC EE3EF566
    Accurately ripped (confidence 2) [0B0565D5] (AR v2)
    Copy OK
    Track 12
    Filename C:\EACrips\12 - An die Laute, D.905 - Johann Friedrich Rochlitz.wav
    Peak level 35.5 %
    Extraction speed 5.6 X
    Track quality 100.0 %
    Test CRC 27DF1C13
    Copy CRC 27DF1C13
    Accurately ripped (confidence 2) [C341E7AB] (AR v2)
    Copy OK
    Track 13
    Filename C:\EACrips\13 - Des Fräuleins Liebeslauschen, D.698 - Franz Xaver Freiherr von Schlechta.wav
    Peak level 39.0 %
    Extraction speed 6.0 X
    Track quality 99.9 %
    Test CRC 1DE0F441
    Copy CRC 1DE0F441
    Accurately ripped (confidence 2) [6AC0B09C] (AR v2)
    Copy OK
    Track 14
    Filename C:\EACrips\14 - Augenlied, D.297 - Johann Mayhofer.wav
    Peak level 79.4 %
    Extraction speed 6.6 X
    Track quality 100.0 %
    Test CRC 14B49325
    Copy CRC 14B49325
    Accurately ripped (confidence 2) [862D2756] (AR v2)
    Copy OK
    Track 15
    Filename C:\EACrips\15 - Du bist die Ruh, D.776 - Friedrich Rückert.wav
    Peak level 89.6 %
    Extraction speed 7.5 X
    Track quality 100.0 %
    Test CRC 3D864450
    Copy CRC 3D864450
    Accurately ripped (confidence 2) [5B8FA1FC] (AR v2)
    Copy OK
    Track 16
    Filename C:\EACrips\16 - An die Musik, D.547 - Franz Schober.wav
    Peak level 57.5 %
    Extraction speed 5.2 X
    Track quality 99.9 %
    Test CRC 5BBF9803
    Copy CRC 5BBF9803
    Accurately ripped (confidence 2) [6C659C8C] (AR v2)
    Copy OK
    Track 17
    Filename C:\EACrips\17 - An eine Quelle, D.530 - Matthias Claudius.wav
    Peak level 47.0 %
    Extraction speed 5.9 X
    Track quality 100.0 %
    Test CRC 2120A1D9
    Copy CRC 2120A1D9
    Accurately ripped (confidence 2) [055DAA6A] (AR v2)
    Copy OK
    Track 18
    Filename C:\EACrips\18 - Der Sänger am Felsen, D.482 - Karoline Pichler.wav
    Peak level 72.2 %
    Extraction speed 6.4 X
    Track quality 100.0 %
    Test CRC 748DFF28
    Copy CRC 748DFF28
    Accurately ripped (confidence 2) [BE30E858] (AR v2)
    Copy OK
    Track 19
    Filename C:\EACrips\19 - Abschied von der Harfe, D.406 - Johann Gaudenz Freiherr von Salis-Seewis.wav
    Peak level 58.2 %
    Extraction speed 6.7 X
    Track quality 100.0 %
    Test CRC 454C17C4
    Copy CRC 454C17C4
    Accurately ripped (confidence 2) [B1BA84B5] (AR v2)
    Copy OK
    Track 20
    Filename C:\EACrips\20 - Liedesend, D.473 - Johann Mayhofer.wav
    Peak level 96.4 %
    Extraction speed 7.9 X
    Track quality 100.0 %
    Test CRC B72F1B75
    Copy CRC B72F1B75
    Accurately ripped (confidence 2) [F4FA3430] (AR v2)
    Copy OK
    All tracks accurately ripped
    No errors occurred
    End of status report
    ---- CUETools DB Plugin V2.1.3
    [CTDB TOCID: iJ_DYpfHAmj4p6Ws9_WYMot9.EQ-] disk not present in database, Submit result: iJ_DYpfHAmj4p6Ws9_WYMot9.EQ- has been uploaded
    ==== Log checksum 79918EC1496977657CB825E8B79B990AF4CD2E1E2EFCB0ACED3604AE5D25E666 ====

    CD 2

    Exact Audio Copy V1.0 beta 3 from 29. August 2011
    EAC extraction logfile from 23. March 2012, 23:12
    Matthias Goerne / Lieder, Vol.2 ''An mein Herz'' (CD2)
    Used drive : HL-DT-STDVDRAM GE20LU10 Adapter: 3 ID: 0
    Read mode : Secure
    Utilize accurate stream : Yes
    Defeat audio cache : Yes
    Make use of C2 pointers : No
    Read offset correction : 667
    Overread into Lead-In and Lead-Out : No
    Fill up missing offset samples with silence : Yes
    Delete leading and trailing silent blocks : No
    Null samples used in CRC calculations : Yes
    Used interface : Native Win32 interface for Win NT & 2000
    Gap handling : Appended to previous track
    Used output format : User Defined Encoder
    Selected bitrate : 1024 kBit/s
    Quality : High
    Add ID3 tag : No
    Command line compressor : C:\Programmi\Exact Audio Copy\Flac\flac.exe
    Additional command line options : -8 -V -T "ARTIST=%artist%" -T "TITLE=%title%" -T "ALBUM=%albumtitle%" -T "DATE=%year%" -T "TRACKNUMBER=%tracknr%" -T "GENRE=%genre%" -T "PERFORMER=%albuminterpret%" -T "COMPOSER=%composer%" %haslyrics%--tag-from-file=LYRICS="%lyricsfile%"%haslyrics% -T "ALBUMARTIST=%albumartist%" -T "ALBUM ARTIST=%albumartist%" -T "DISCNUMBER=%cdnumber%" -T "TOTALDISCS=%totalcds%" -T "TOTALTRACKS=%numtracks%" -T "COMMENT=%comment%" %source% -o %dest%
    TOC of the extracted CD
    Track | Start | Length | Start sector | End sector
    ---------------------------------------------------------
    1 | 0:00.00 | 3:51.52 | 0 | 17376
    2 | 3:51.52 | 3:05.44 | 17377 | 31295
    3 | 6:57.21 | 2:08.35 | 31296 | 40930
    4 | 9:05.56 | 3:46.67 | 40931 | 57947
    5 | 12:52.48 | 2:02.16 | 57948 | 67113
    6 | 14:54.64 | 2:34.52 | 67114 | 78715
    7 | 17:29.41 | 2:06.37 | 78716 | 88202
    8 | 19:36.03 | 2:56.12 | 88203 | 101414
    9 | 22:32.15 | 3:24.73 | 101415 | 116787
    10 | 25:57.13 | 5:54.58 | 116788 | 143395
    11 | 31:51.71 | 2:31.37 | 143396 | 154757
    12 | 34:23.33 | 4:04.72 | 154758 | 173129
    13 | 38:28.30 | 3:26.57 | 173130 | 188636
    14 | 41:55.12 | 2:21.18 | 188637 | 199229
    15 | 44:16.30 | 3:52.67 | 199230 | 216696
    16 | 48:09.22 | 4:34.46 | 216697 | 237292
    17 | 52:43.68 | 2:18.28 | 237293 | 247670
    18 | 55:02.21 | 1:07.57 | 247671 | 252752
    19 | 56:10.03 | 3:14.02 | 252753 | 267304
    20 | 59:24.05 | 2:24.37 | 267305 | 278141
    21 | 61:48.42 | 3:24.29 | 278142 | 293470
    22 | 65:12.71 | 1:15.58 | 293471 | 299153
    23 | 66:28.54 | 3:21.44 | 299154 | 314272
    Track 1
    Filename C:\EACrips\01 - Das Heimweh, D.456 - Theodor Hell, Max Kalbeck.wav
    Pre-gap length 0:00:02.00
    Peak level 78.6 %
    Extraction speed 4.1 X
    Track quality 100.0 %
    Test CRC E51DBE18
    Copy CRC E51DBE18
    Accurately ripped (confidence 2) [1B2E8C55] (AR v2)
    Copy OK
    Track 2
    Filename C:\EACrips\02 - Auf der Donau, D.553 - Johann Mayrhofer.wav
    Peak level 70.0 %
    Extraction speed 3.5 X
    Track quality 99.9 %
    Test CRC 9970D41F
    Copy CRC 9970D41F
    Accurately ripped (confidence 2) [72BEB132] (AR v2)
    Copy OK
    Track 3
    Filename C:\EACrips\03 - Wie Ulfru fischt, D.525 - Johann Mayrhofer.wav
    Peak level 98.0 %
    Extraction speed 3.1 X
    Track quality 99.9 %
    Test CRC A469A517
    Copy CRC A469A517
    Accurately ripped (confidence 2) [5392C4E5] (AR v2)
    Copy OK
    Track 4
    Filename C:\EACrips\04 - Die Sternennächte, D.670 - Johann Mayrhofer.wav
    Peak level 39.3 %
    Extraction speed 5.0 X
    Track quality 100.0 %
    Test CRC 660A0BDE
    Copy CRC 660A0BDE
    Accurately ripped (confidence 2) [99FC9906] (AR v2)
    Copy OK
    Track 5
    Filename C:\EACrips\05 - Rückweg, D.476 - Johann Mayrhofer.wav
    Peak level 71.0 %
    Extraction speed 4.6 X
    Track quality 100.0 %
    Test CRC 442D7704
    Copy CRC 442D7704
    Accurately ripped (confidence 2) [888CBEE0] (AR v2)
    Copy OK
    Track 6
    Filename C:\EACrips\06 - Geheimnis, D.491 - Johann Mayrhofer.wav
    Peak level 75.5 %
    Extraction speed 3.8 X
    Track quality 99.9 %
    Test CRC 012C45E5
    Copy CRC 012C45E5
    Accurately ripped (confidence 2) [AB14B7D0] (AR v2)
    Copy OK
    Track 7
    Filename C:\EACrips\07 - Gondelfahrer, D.808 - Johann Mayrhofer.wav
    Peak level 38.8 %
    Extraction speed 3.7 X
    Track quality 99.9 %
    Test CRC F7BA5F3F
    Copy CRC F7BA5F3F
    Accurately ripped (confidence 2) [0A51E5D0] (AR v2)
    Copy OK
    Track 8
    Filename C:\EACrips\08 - Abendstern, D.806 - Johann Mayrhofer.wav
    Peak level 41.9 %
    Extraction speed 5.3 X
    Track quality 100.0 %
    Test CRC 762BEDCE
    Copy CRC 762BEDCE
    Accurately ripped (confidence 2) [374250E5] (AR v2)
    Copy OK
    Track 9
    Filename C:\EACrips\09 - Der Sieg, D.805 - Johann Mayrhofer.wav
    Peak level 96.5 %
    Extraction speed 5.8 X
    Track quality 100.0 %
    Test CRC 8AD005D2
    Copy CRC 8AD005D2
    Accurately ripped (confidence 2) [27FE627C] (AR v2)
    Copy OK
    Track 10
    Filename C:\EACrips\10 - Nachtstück, D.672 - Johann Mayrhofer.wav
    Peak level 65.7 %
    Extraction speed 6.3 X
    Track quality 100.0 %
    Test CRC 696E8B94
    Copy CRC 696E8B94
    Accurately ripped (confidence 2) [96E75605] (AR v2)
    Copy OK
    Track 11
    Filename C:\EACrips\11 - Auflösung, D.807 - Johann Mayrhofer.wav
    Peak level 91.2 %
    Extraction speed 5.9 X
    Track quality 100.0 %
    Test CRC BA37322D
    Copy CRC BA37322D
    Accurately ripped (confidence 2) [B334AD29] (AR v2)
    Copy OK
    Track 12
    Filename C:\EACrips\12 - Heiß mich nicht reden, D.877-2 - Johann Wolfgang von Goethe.wav
    Peak level 99.8 %
    Extraction speed 6.5 X
    Track quality 100.0 %
    Test CRC A72952AA
    Copy CRC A72952AA
    Accurately ripped (confidence 2) [0962366F] (AR v2)
    Copy OK
    Track 13
    Filename C:\EACrips\13 - Nur wer die Sehnsucht kennt, D.877-4 - Johann Wolfgang von Goethe.wav
    Peak level 99.9 %
    Extraction speed 6.4 X
    Track quality 100.0 %
    Test CRC 4A23504A
    Copy CRC 4A23504A
    Accurately ripped (confidence 2) [E6DEA15E] (AR v2)
    Copy OK
    Track 14
    Filename C:\EACrips\14 - An Mignon, D.161 - Johann Wolfgang von Goethe.wav
    Peak level 71.1 %
    Extraction speed 6.4 X
    Track quality 100.0 %
    Test CRC E06E20A7
    Copy CRC E06E20A7
    Accurately ripped (confidence 2) [7FF0EC75] (AR v2)
    Copy OK
    Track 15
    Filename C:\EACrips\15 - Gesänge der Harfners, D.478 - Johann Wolfgang von Goethe - Nr.1 Wer sich der Einsamkeit ergibt.wav
    Peak level 91.1 %
    Extraction speed 6.8 X
    Track quality 100.0 %
    Test CRC 9717462B
    Copy CRC 9717462B
    Accurately ripped (confidence 2) [365CAC98] (AR v2)
    Copy OK
    Track 16
    Filename C:\EACrips\16 - Gesänge der Harfners, D.478 - Johann Wolfgang von Goethe - Nr.2 Wer nie sein Brot mit Tränen aß.wav
    Peak level 99.8 %
    Extraction speed 7.3 X
    Track quality 100.0 %
    Test CRC 25277D66
    Copy CRC 25277D66
    Accurately ripped (confidence 2) [3C2BB0B0] (AR v2)
    Copy OK
    Track 17
    Filename C:\EACrips\17 - Gesänge der Harfners, D.478 - Johann Wolfgang von Goethe - Nr.3 An die Türen will ich schleichen.wav
    Peak level 24.6 %
    Extraction speed 6.5 X
    Track quality 100.0 %
    Test CRC 40F6AE5D
    Copy CRC 40F6AE5D
    Accurately ripped (confidence 2) [BE18CF6C] (AR v2)
    Copy OK
    Track 18
    Filename C:\EACrips\18 - Am Flusse, D.160 - Johann Wolfgang von Goethe.wav
    Peak level 67.8 %
    Extraction speed 5.5 X
    Track quality 100.0 %
    Test CRC 22AAD0D0
    Copy CRC 22AAD0D0
    Accurately ripped (confidence 2) [17F5C5B3] (AR v2)
    Copy OK
    Track 19
    Filename C:\EACrips\19 - Nähe des Geliebten, D.162 - Johann Wolfgang von Goethe.wav
    Peak level 71.4 %
    Extraction speed 7.1 X
    Track quality 100.0 %
    Test CRC BEB69725
    Copy CRC BEB69725
    Accurately ripped (confidence 2) [4C31D708] (AR v2)
    Copy OK
    Track 20
    Filename C:\EACrips\20 - Der Fischer, D.225 - Johann Wolfgang von Goethe.wav
    Peak level 42.7 %
    Extraction speed 7.0 X
    Track quality 100.0 %
    Test CRC F609902F
    Copy CRC F609902F
    Accurately ripped (confidence 2) [EBB5BF9B] (AR v2)
    Copy OK
    Track 21
    Filename C:\EACrips\21 - Auf dem See, D.543 - Johann Wolfgang von Goethe.wav
    Peak level 67.0 %
    Extraction speed 7.2 X
    Track quality 100.0 %
    Test CRC 74957AB0
    Copy CRC 74957AB0
    Accurately ripped (confidence 2) [AA5945B4] (AR v2)
    Copy OK
    Track 22
    Filename C:\EACrips\22 - Wonne der Wehmut, D.260 - Johann Wolfgang von Goethe.wav
    Peak level 46.3 %
    Extraction speed 6.1 X
    Track quality 100.0 %
    Test CRC F1BCFC71
    Copy CRC F1BCFC71
    Accurately ripped (confidence 2) [952FFBD2] (AR v2)
    Copy OK
    Track 23
    Filename C:\EACrips\23 - Willkommen und Abschied, D.767 - Johann Wolfgang von Goethe.wav
    Peak level 99.9 %
    Extraction speed 7.7 X
    Track quality 100.0 %
    Test CRC 3E7550BB
    Copy CRC 3E7550BB
    Accurately ripped (confidence 2) [4FFFFA1B] (AR v2)
    Copy OK
    All tracks accurately ripped
    No errors occurred
    End of status report
    ---- CUETools DB Plugin V2.1.3
    [CTDB TOCID: ism_IFXRtjCSAb_1OGI1Mru3ypk-] disk not present in database, Submit result: ism_IFXRtjCSAb_1OGI1Mru3ypk- has been uploaded
    ==== Log checksum 41314941D9AD07B1B41C4F7F484325329286FB38C07257FD8704703D6413B7E6 ====

    auCDtect Task Manager logs / Отчёты auCDtect Task ManagerCD 1

    -----------------------
    DON'T MODIFY THIS FILE
    -----------------------
    PERFORMER: auCDtect Task Manager, ver. 1.5.1RC3 build 1.5.1.4
    Copyright (c) 2008-2010 y-soft. All rights reserved
    ANALYZER: auCDtect: CD records authenticity detector, version 0.8.2
    Copyright (c) 2004 Oleg Berngardt. All rights reserved.
    Copyright (c) 2004 Alexander Djourik. All rights reserved.
    FILE: 20 - Liedesend (Mayrhofer), D. 473.flac
    Size: 18155118 Hash: 46800539C54CD41703771B77498F17F6 Accuracy: -m0
    Conclusion: CDDA 100%
    Signature: D39102147025CEBE060AB606D1BC992699606C4C
    FILE: 19 - Abschied von der Harfe (Salis-Seewis), D. 406.flac
    Size: 8241308 Hash: BEF2137E24133AFDFBB0136236A44A68 Accuracy: -m0
    Conclusion: CDDA 100%
    Signature: 06ECF576B67E61AE9AFC317B0D068C87187DD5B5
    FILE: 18 - Der Saenger am Felsen (Pichler), D. 482.flac
    Size: 7729251 Hash: 6B101A430115928A9D0EF4D36AF6B6B9 Accuracy: -m0
    Conclusion: CDDA 100%
    Signature: A20D479FB987417384D1DBFD25488A93E9326DAF
    FILE: 17 - An eine Quelle (Claudius), D. 530.flac
    Size: 5780522 Hash: 17CAA3ABDB7CAA8A8952B1647DA1897D Accuracy: -m0
    Conclusion: CDDA 100%
    Signature: 687CD2A9DDD8C84DB0FC259412B5B2C2329EA89B
    FILE: 16 - An die Musik (Schober), D. 547.flac
    Size: 8124044 Hash: 7CA8DE634F92B510365BFF575D910F4E Accuracy: -m0
    Conclusion: CDDA 100%
    Signature: E7C7C30D4B162207E5EA5F7DA38FF9F7495E4789
    FILE: 15 - Du bist die Ruh (Rueckert), D. 776.flac
    Size: 17055890 Hash: 42F0DE2DA1B8156DD2694F87976CFEA9 Accuracy: -m0
    Conclusion: CDDA 99%
    Signature: AEAEA27D44E0BD08D8FE91F2B106C873964A93E6
    FILE: 14 - Augenlied (Mayrhofer), D. 297.flac
    Size: 9738614 Hash: BE4273D9CFE27694D84A43BDFA2F842C Accuracy: -m0
    Conclusion: CDDA 100%
    Signature: 1D3D51E0018E91E7B9D22C7A67EA03AD96D02491
    FILE: 13 - Des Fraeuleins Liebeslauschen (Schlechta), D. 698.flac
    Size: 16408726 Hash: 271D950034451AF22A8C9AE72ECD32B4 Accuracy: -m0
    Conclusion: CDDA 100%
    Signature: 1B3414572100B8E9055B399F0C56116C062AD7E3
    FILE: 12 - An die Laute (Rochlitz), D. 905.flac
    Size: 6519010 Hash: EE0CF6D55192D8FC782C05A5526161BF Accuracy: -m0
    Conclusion: CDDA 100%
    Signature: 61134DF4EDD0527CD3DF5A269DF89D8D6C060260
    FILE: 11 - Am Bach im Fruehling (Schober), D. 361.flac
    Size: 12040447 Hash: 0F104C0990F3FE7AE3FB6A7F496E5ED3 Accuracy: -m0
    Conclusion: CDDA 100%
    Signature: 2BDEAA96FACD668D115517AB2B68E6E7596379C2
    FILE: 10 - Klage (unknown), D. 371.flac
    Size: 10551229 Hash: 3DE3A3D2D07398DC0A47F1BFC1352130 Accuracy: -m0
    Conclusion: CDDA 100%
    Signature: B8043F2AF511ECE99AA89B324255C3ED246E24CA
    FILE: 09 - Ueber Wildemann (Schulze), D. 884.flac
    Size: 8604768 Hash: F54F795467C24D4AA3ED23FAD54974EC Accuracy: -m0
    Conclusion: CDDA 100%
    Signature: A614FD9601A1FAF423073398C8F4675A3C9B136D
    FILE: 08 - Der Wanderer (Schlegel), D. 649.flac
    Size: 11155335 Hash: C0F13C5119892DD9F08C6A651BC15ABB Accuracy: -m0
    Conclusion: CDDA 100%
    Signature: 94701F87B84179E278FA6AC2F084DF20AB79F2A6
    FILE: 07 - An mein Herz (Schulze), D. 860.flac
    Size: 11972860 Hash: 5B3B7EDEC202797034075AB273B3A3BD Accuracy: -m0
    Conclusion: CDDA 100%
    Signature: F2190F52F7A9C979D2A9A67A10910F487D5C5BBC
    FILE: 06 - Drang in die Ferne (Leitner), D. 770.flac
    Size: 10907917 Hash: 99AB390CEB10FE77E21547683532EAF2 Accuracy: -m0
    Conclusion: CDDA 100%
    Signature: ABC5B793B2882BF3A93F10B041CB7DAA90FC5D54
    FILE: 05 - Der Herbstabend (Salis-Seewis), D. 405.flac
    Size: 8599194 Hash: 9B263E7877ACDEF44A3AD6E6A8EE2040 Accuracy: -m0
    Conclusion: CDDA 100%
    Signature: 932452C181A3D735AC71794DD568C89B47F1F203
    FILE: 04 - In's stille Land (Salis-Seewis), D. 403.flac
    Size: 11660018 Hash: 76B98CC1076708E6A3AC6AA8F84CB932 Accuracy: -m0
    Conclusion: CDDA 100%
    Signature: 705A9E6546371DC0BCA71749FD08C11C5A7AF763
    FILE: 03 - Wehmut (Die Herbstnacht) (Salis-Seewis), D. 404.flac
    Size: 6736023 Hash: 3A7900EF4F3369728E1AE77893C0AC5C Accuracy: -m0
    Conclusion: CDDA 100%
    Signature: AD170B4FFD26F9EFF0BBBDCB292CF0C790EF899E
    FILE: 02 - Das Lied im Gruenen (Reil), D. 917.flac
    Size: 19600935 Hash: C4644EA04561EF488F34BBD580BC3AB8 Accuracy: -m0
    Conclusion: CDDA 100%
    Signature: 18F99FB2EAD8A70F827CCD85675BAAE0907A4BC9
    FILE: 01 - Der Juengling und der Tod (Spaun), D. 545.flac
    Size: 12417154 Hash: BCC349C2FE40C2B45D18D84A292D2D25 Accuracy: -m0
    Conclusion: CDDA 100%
    Signature: 4872585B41798F424B414038F1B67E45714AB4D0

    CD 2

    -----------------------
    DON'T MODIFY THIS FILE
    -----------------------
    PERFORMER: auCDtect Task Manager, ver. 1.5.1RC3 build 1.5.1.4
    Copyright (c) 2008-2010 y-soft. All rights reserved
    ANALYZER: auCDtect: CD records authenticity detector, version 0.8.2
    Copyright (c) 2004 Oleg Berngardt. All rights reserved.
    Copyright (c) 2004 Alexander Djourik. All rights reserved.
    FILE: 23 - Willkommen und Abschied (Goethe), D. 767.flac
    Size: 15221913 Hash: 65618A8CEAA8BA27951C58A718BC8D47 Accuracy: -m0
    Conclusion: CDDA 100%
    Signature: F3FC0DAB79E28FC339E028F0A03268699793840C
    FILE: 22 - Wonne der Wehmut (Goethe), D. 260.flac
    Size: 4671300 Hash: 76B175ED624FD287C4BFA6C9B601ABC9 Accuracy: -m0
    Conclusion: CDDA 94%
    Signature: 613AEBBC01BCF0E6F35DA15F50AF56841FB68334
    FILE: 21 - Auf dem See (Goethe), D. 543.flac
    Size: 13570831 Hash: 9B85929B07EDDEBC0A1F90C52B111AC0 Accuracy: -m0
    Conclusion: CDDA 86%
    Signature: 531325DBE6B3ECB8D312EAFB6AE2C5CB774A572C
    FILE: 20 - Der Fischer (Goethe), D. 225.flac
    Size: 10144348 Hash: 1968D3673DD09F850BE805BB4B45D1CD Accuracy: -m0
    Conclusion: CDDA 100%
    Signature: D003DD4C86F8D2A900A679B6385DD0F51F369F3C
    FILE: 19 - Naehe des Geliebten (Goethe), D. 162.flac
    Size: 11968206 Hash: 2AC967CFA00737EF8442C408EDC38D3A Accuracy: -m0
    Conclusion: CDDA 92%
    Signature: BD84FF076E10C118F59EB27CBFC780F1B9D19EC0
    FILE: 18 - Am Flusse (Goethe), D. 160.flac
    Size: 4783886 Hash: 61D26A387D5E67198FAB2F63C6677A55 Accuracy: -m0
    Conclusion: CDDA 100%
    Signature: EFDB1C7D34FBD66FBE8CE411A0207BFF742DFDEF
    FILE: 17 - Gesaenge der Harfners (Goethe) - II. An die Tueren will ich schleichen, D. 479.flac
    Size: 8249199 Hash: 79D321A1AB23BCC7A82B0F0E64DB3D45 Accuracy: -m0
    Conclusion: CDDA 87%
    Signature: 658A84C0B0E1F006034F764E9FB1C092057FCC2D
    FILE: 16 - Gesaenge der Harfners (Goethe) - III. Wer nie sein Brot mit Traenen ass, D. 480.flac
    Size: 17993992 Hash: 2A3D1CDD817AC880DE3DABC384C94108 Accuracy: -m0
    Conclusion: CDDA 54%
    Signature: BFDA5440438ABF456B841C65FBFFC1A7F6310A31
    FILE: 15 - Gesaenge der Harfners (Goethe) - I. Wer sich der Einsamkeit ergibt, D. 478.flac
    Size: 14967702 Hash: A85D773FB851DEA4B6BAE8EDDC5BD1D8 Accuracy: -m0
    Conclusion: CDDA 94%
    Signature: 960017CC0012F5C97555C1DA684D30276D545BD5
    FILE: 14 - An Mignon (Goethe), D. 161.flac
    Size: 9714722 Hash: 163AC781949AB561E25562C5D30F079E Accuracy: -m0
    Conclusion: CDDA 100%
    Signature: C7A9F51E5311AD828AE421A24C3C35579C95F9A0
    FILE: 13 - Nun wer die Sehnsucht kennt (Goethe), D. 877 Nr. 4.flac
    Size: 12110293 Hash: 5CF4A178C55355BBFE73AD3D499DE810 Accuracy: -m0
    Conclusion: CDDA 43%
    Signature: C32090133952072998BC3A70D4543A951673C094
    FILE: 12 - Heiss mich nicht reden (Goethe), D. 877 Nr. 2.flac
    Size: 15154769 Hash: 2485859BD9D39F07425AC3FA7B0999AB Accuracy: -m0
    Conclusion: CDDA 43%
    Signature: 3FAD884795347688229494E64E9F048E805E2E96
    FILE: 11 - Aufloesung (Mayrhofer), D. 807.flac
    Size: 10942903 Hash: 5AAA9F0A2E36575CF4C8033DEF110F22 Accuracy: -m0
    Conclusion: CDDA 76%
    Signature: CE7CAD8E57DBD2836C243A9AA2C6C5ABE67C70F0
    FILE: 10 - Nachtstueck (Mayrhofer), D. 672.flac
    Size: 21501031 Hash: 5594103A85FB4A0982181316DDA99DEE Accuracy: -m0
    Conclusion: CDDA 54%
    Signature: EB6823E868481F1C76775647AB7DBEE3704B6A78
    FILE: 09 - Der Sieg (Mayrhofer), D. 805.flac
    Size: 13427063 Hash: EB69870A5E49DFC19BA4A4055A746FF3 Accuracy: -m0
    Conclusion: CDDA 85%
    Signature: F1F2D4726DF491972C3648AD5A89C25CE2A29F24
    FILE: 08 - Abendstern (Mayrhofer), D. 806.flac
    Size: 10354490 Hash: F8C5C79958E558D6FCBEDB77816B1D3D Accuracy: -m0
    Conclusion: CDDA 76%
    Signature: D8407B3191DFCE45A123527E18435B50D9B1CC5E
    FILE: 07 - Gondelfahrer (Mayrhofer), D. 808.flac
    Size: 7471170 Hash: 1C9BEA097AF10AEFBDD6C7969EA4C646 Accuracy: -m0
    Conclusion: CDDA 58%
    Signature: B7B9641893490EE36495BBA2328B4D1A63FACDDD
    FILE: 06 - Geheimnis (Mayrhofer), D. 491.flac
    Size: 10076818 Hash: D7EB771E58EA2C18F6B692D7207C21F3 Accuracy: -m0
    Conclusion: CDDA 76%
    Signature: C51FC88FA636A70AFB21C7A3C0B1B29B6B28D0B6
    FILE: 05 - Rueckweg (Mayrhofer), D. 476.flac
    Size: 8134866 Hash: 3781B4FEC36020957B9A3083EFF2814D Accuracy: -m0
    Conclusion: CDDA 87%
    Signature: F86EB1FBC7245482FC1DD0102D5A9D0EBC6C6368
    FILE: 04 - Die Sternennaechte (Mayrhofer), D. 670.flac
    Size: 13809193 Hash: 0B6803ABB5CEBF5A890DADB636D8905F Accuracy: -m0
    Conclusion: CDDA 86%
    Signature: 158BEECF446B118E8A3629F126052BCA12B596A3
    FILE: 03 - Wie Ulfru fischt (Mayrhofer), D. 525.flac
    Size: 9995894 Hash: 0537BCE33DC3F0B11EF1EA2DC4C34CCD Accuracy: -m0
    Conclusion: CDDA 100%
    Signature: 5FAA4AB92786489697869291CC4284C5AFCD69D5
    FILE: 02 - Auf der Donau (Mayrhofer), D. 553.flac
    Size: 11408849 Hash: 95F78FE3B19BC9ACF31667216C023D55 Accuracy: -m0
    Conclusion: CDDA 43%
    Signature: C1B96F67DE76BB01A601BFC34EC58EF66AF0F252
    FILE: 01 - Das Heimweh (Hell), D. 456.flac
    Size: 14236379 Hash: F3D7F734C385B4FCFDB9CBA21DA783C0 Accuracy: -m0
    Conclusion: CDDA 92%
    Signature: D1F845E34A240C30C1F8531E4293702CC26ABED7

    CUETools logs / Отчёты CUEToolsCD 1

    [CUETools log; Date: 10.11.2013 18:05:43; Version: 2.1.4]
    [AccurateRip ID: 002f12ce-02ab2cea-180f1314] found.
    Track [ CRC | V2 ] Status
    01 [2ad5f53a|05ed9c77] (13+11/24) Accurately ripped
    02 [05cb2ce3|8e60f61f] (13+11/24) Accurately ripped
    03 [195c6214|9165120d] (13+11/24) Accurately ripped
    04 [a30ff3ba|eac3b887] (13+11/24) Accurately ripped
    05 [31b4f147|b55f3d68] (13+11/24) Accurately ripped
    06 [ebfef05b|50a97cac] (13+11/24) Accurately ripped
    07 [cdabfd71|8deff97d] (13+11/24) Accurately ripped
    08 [ef465195|0da91e4c] (13+11/24) Accurately ripped
    09 [95983ac2|1ca2c309] (13+11/24) Accurately ripped
    10 [ab54cf30|89acd6b6] (13+11/24) Accurately ripped
    11 [c5493bcd|0b0565d5] (13+11/24) Accurately ripped
    12 [f5858d4a|c341e7ab] (13+11/24) Accurately ripped
    13 [462aa437|6ac0b09c] (13+11/24) Accurately ripped
    14 [69c2c25d|862d2756] (13+11/24) Accurately ripped
    15 [feb6a31f|5b8fa1fc] (13+11/24) Accurately ripped
    16 [ebc61f3e|6c659c8c] (13+11/24) Accurately ripped
    17 [186e4476|055daa6a] (13+11/24) Accurately ripped
    18 [373a0d1d|be30e858] (13+11/24) Accurately ripped
    19 [118385f2|b1ba84b5] (13+11/24) Accurately ripped
    20 [6fa2e95a|f4fa3430] (13+11/24) Accurately ripped
    Track Peak [ CRC32 ] [W/O NULL] [ LOG ]
    -- 99,8 [2A8BFDC3] [44D5125F]
    01 54,0 [1EFE33B1] [CC6F8781] CRC32
    02 53,2 [BC3CE135] [765FBDC3] CRC32
    03 53,8 [8EF0073D] [C0DAE430] CRC32
    04 45,1 [C462B8D8] [A030E212] CRC32
    05 55,4 [40F1E747] [21C7B686] CRC32
    06 89,6 [06C09EC7] [DFB658B5] CRC32
    07 99,8 [70F8D2F7] [117A0B99] CRC32
    08 31,9 [099435BC] [856D4C4E] CRC32
    09 99,8 [5340BB32] [61318EDF] CRC32
    10 90,8 [E4086112] [ABCB49E2] CRC32
    11 55,3 [EE3EF566] [1FD797F9] CRC32
    12 35,5 [27DF1C13] [C78DDDA9] CRC32
    13 39,0 [1DE0F441] [07D1B229] CRC32
    14 79,4 [14B49325] [49EE0BBC] CRC32
    15 89,6 [3D864450] [8532F201] CRC32
    16 57,5 [5BBF9803] [DF20ABC9] CRC32
    17 47,0 [2120A1D9] [91108271] CRC32
    18 72,2 [748DFF28] [47D3F8F5] CRC32
    19 58,2 [454C17C4] [6797FF14] CRC32
    20 96,4 [B72F1B75] [8B3A775B] CRC32

    CD 2

    [CUETools log; Date: 10.11.2013 18:05:56; Version: 2.1.4]
    [AccurateRip ID: 003afc62-03d7a6e0-51105e17] found.
    Track [ CRC | V2 ] Status
    01 [6a73b28f|1b2e8c55] (12+11/23) Accurately ripped
    02 [7b64b937|72beb132] (12+11/23) Accurately ripped
    03 [59b41e07|5392c4e5] (12+11/23) Accurately ripped
    04 [c9c107d8|99fc9906] (12+11/23) Accurately ripped
    05 [db5b1a0a|888cbee0] (12+11/23) Accurately ripped
    06 [17b74fdc|ab14b7d0] (12+11/23) Accurately ripped
    07 [c9567431|0a51e5d0] (12+11/23) Accurately ripped
    08 [a6cacfaa|374250e5] (12+11/23) Accurately ripped
    09 [b9cffd9c|27fe627c] (12+11/23) Accurately ripped
    10 [b7e9b462|96e75605] (12+11/23) Accurately ripped
    11 [909b20bb|b334ad29] (12+11/23) Accurately ripped
    12 [647ac28c|0962366f] (12+11/23) Accurately ripped
    13 [9cc796ad|e6dea15e] (12+11/23) Accurately ripped
    14 [e294e18f|7ff0ec75] (12+11/23) Accurately ripped
    15 [be459835|365cac98] (12+11/23) Accurately ripped
    16 [417803a9|3c2bb0b0] (12+11/23) Accurately ripped
    17 [fc1a0e29|be18cf6c] (12+11/23) Accurately ripped
    18 [e5ee1a21|17f5c5b3] (12+11/23) Accurately ripped
    19 [22da6448|4c31d708] (12+11/23) Accurately ripped
    20 [e8a7b087|ebb5bf9b] (12+11/23) Accurately ripped
    21 [8887ae72|aa5945b4] (12+11/23) Accurately ripped
    22 [cef58e40|952ffbd2] (12+11/23) Accurately ripped
    23 [27fbae9b|4ffffa1b] (12+11/23) Accurately ripped
    Track Peak [ CRC32 ] [W/O NULL] [ LOG ]
    -- 99,9 [67D6161F] [AB0684C9]
    01 78,6 [E51DBE18] [169860A9] CRC32
    02 70,0 [9970D41F] [03FB743C] CRC32
    03 98,0 [A469A517] [8A461C34] CRC32
    04 39,3 [660A0BDE] [B9CA4764] CRC32
    05 71,0 [442D7704] [8097E274] CRC32
    06 75,5 [012C45E5] [E037096A] CRC32
    07 38,8 [F7BA5F3F] [C6E48257] CRC32
    08 41,9 [762BEDCE] [80F58A19] CRC32
    09 96,5 [8AD005D2] [28C982D7] CRC32
    10 65,7 [696E8B94] [780541E8] CRC32
    11 91,2 [BA37322D] [06349549] CRC32
    12 99,8 [A72952AA] [E3A1A962] CRC32
    13 99,9 [4A23504A] [137AB18D] CRC32
    14 71,1 [E06E20A7] [E110363E] CRC32
    15 91,1 [9717462B] [86E017C8] CRC32
    16 99,8 [25277D66] [BA0C6361] CRC32
    17 24,6 [40F6AE5D] [4A94A27B] CRC32
    18 67,8 [22AAD0D0] [FECEA476] CRC32
    19 71,4 [BEB69725] [0C8D766B] CRC32
    20 42,7 [F609902F] [282FE8BC] CRC32
    21 67,0 [74957AB0] [3F1741B6] CRC32
    22 46,3 [F1BCFC71] [69DD3118] CRC32
    23 99,9 [3E7550BB] [EE50556E] CRC32

    CUE sheetsCD 1

    TITLE "Matthias Goerne Schubert Edition. Volume 2"
    PERFORMER "Matthias Goerne"
    REM GENRE Classical
    REM DISCID 180F1314
    REM COMMENT "ExactAudioCopy v1.0b3"
    FILE "01 - Der Juengling und der Tod (Spaun), D. 545.flac" WAVE
    TRACK 01 AUDIO
    TITLE "Der Jüngling und der Tod (Spaun), D. 545"
    PERFORMER "Matthias Goerne (baritone), Helmut Deutsch (piano)"
    REM DATE 2008
    INDEX 01 00:00:00
    FILE "02 - Das Lied im Gruenen (Reil), D. 917.flac" WAVE
    TRACK 02 AUDIO
    TITLE "Das Lied im Grünen (Reil), D. 917"
    PERFORMER "Matthias Goerne (baritone), Helmut Deutsch (piano)"
    REM DATE 2008
    INDEX 01 00:00:00
    FILE "03 - Wehmut (Die Herbstnacht) (Salis-Seewis), D. 404.flac" WAVE
    TRACK 03 AUDIO
    TITLE "Wehmut (Die Herbstnacht) (Salis-Seewis), D. 404"
    PERFORMER "Matthias Goerne (baritone), Helmut Deutsch (piano)"
    REM DATE 2008
    INDEX 01 00:00:00
    FILE "04 - In's stille Land (Salis-Seewis), D. 403.flac" WAVE
    TRACK 04 AUDIO
    TITLE "In's stille Land (Salis-Seewis), D. 403"
    PERFORMER "Matthias Goerne (baritone), Helmut Deutsch (piano)"
    REM DATE 2008
    INDEX 01 00:00:00
    FILE "05 - Der Herbstabend (Salis-Seewis), D. 405.flac" WAVE
    TRACK 05 AUDIO
    TITLE "Der Herbstabend (Salis-Seewis), D. 405"
    PERFORMER "Matthias Goerne (baritone), Helmut Deutsch (piano)"
    REM DATE 2008
    INDEX 01 00:00:00
    FILE "06 - Drang in die Ferne (Leitner), D. 770.flac" WAVE
    TRACK 06 AUDIO
    TITLE "Drang in die Ferne (Leitner), D. 770"
    PERFORMER "Matthias Goerne (baritone), Helmut Deutsch (piano)"
    REM DATE 2008
    INDEX 01 00:00:00
    FILE "07 - An mein Herz (Schulze), D. 860.flac" WAVE
    TRACK 07 AUDIO
    TITLE "An mein Herz (Schulze), D. 860"
    PERFORMER "Matthias Goerne (baritone), Helmut Deutsch (piano)"
    REM DATE 2008
    INDEX 01 00:00:00
    FILE "08 - Der Wanderer (Schlegel), D. 649.flac" WAVE
    TRACK 08 AUDIO
    TITLE "Der Wanderer (Schlegel), D. 649"
    PERFORMER "Matthias Goerne (baritone), Helmut Deutsch (piano)"
    REM DATE 2008
    INDEX 01 00:00:00
    FILE "09 - Ueber Wildemann (Schulze), D. 884.flac" WAVE
    TRACK 09 AUDIO
    TITLE "Über Wildemann (Schulze), D. 884"
    PERFORMER "Matthias Goerne (baritone), Helmut Deutsch (piano)"
    REM DATE 2008
    INDEX 01 00:00:00
    FILE "10 - Klage (unknown), D. 371.flac" WAVE
    TRACK 10 AUDIO
    TITLE "Klage (unknown), D. 371"
    PERFORMER "Matthias Goerne (baritone), Helmut Deutsch (piano)"
    REM DATE 2008
    INDEX 01 00:00:00
    FILE "11 - Am Bach im Fruehling (Schober), D. 361.flac" WAVE
    TRACK 11 AUDIO
    TITLE "Am Bach im Frühling (Schober), D. 361"
    PERFORMER "Matthias Goerne (baritone), Helmut Deutsch (piano)"
    REM DATE 2008
    INDEX 01 00:00:00
    FILE "12 - An die Laute (Rochlitz), D. 905.flac" WAVE
    TRACK 12 AUDIO
    TITLE "An die Laute (Rochlitz), D. 905"
    PERFORMER "Matthias Goerne (baritone), Helmut Deutsch (piano)"
    REM DATE 2008
    INDEX 01 00:00:00
    FILE "13 - Des Fraeuleins Liebeslauschen (Schlechta), D. 698.flac" WAVE
    TRACK 13 AUDIO
    TITLE "Des Fräuleins Liebeslauschen (Schlechta), D. 698"
    PERFORMER "Matthias Goerne (baritone), Helmut Deutsch (piano)"
    REM DATE 2008
    INDEX 01 00:00:00
    FILE "14 - Augenlied (Mayrhofer), D. 297.flac" WAVE
    TRACK 14 AUDIO
    TITLE "Augenlied (Mayrhofer), D. 297"
    PERFORMER "Matthias Goerne (baritone), Helmut Deutsch (piano)"
    REM DATE 2008
    INDEX 01 00:00:00
    FILE "15 - Du bist die Ruh (Rueckert), D. 776.flac" WAVE
    TRACK 15 AUDIO
    TITLE "Du bist die Ruh (Rückert), D. 776"
    PERFORMER "Matthias Goerne (baritone), Helmut Deutsch (piano)"
    REM DATE 2008
    INDEX 01 00:00:00
    FILE "16 - An die Musik (Schober), D. 547.flac" WAVE
    TRACK 16 AUDIO
    TITLE "An die Musik (Schober), D. 547"
    PERFORMER "Matthias Goerne (baritone), Helmut Deutsch (piano)"
    REM DATE 2008
    INDEX 01 00:00:00
    FILE "17 - An eine Quelle (Claudius), D. 530.flac" WAVE
    TRACK 17 AUDIO
    TITLE "An eine Quelle (Claudius), D. 530"
    PERFORMER "Matthias Goerne (baritone), Helmut Deutsch (piano)"
    REM DATE 2008
    INDEX 01 00:00:00
    FILE "18 - Der Saenger am Felsen (Pichler), D. 482.flac" WAVE
    TRACK 18 AUDIO
    TITLE "Der Sänger am Felsen (Pichler), D. 482"
    PERFORMER "Matthias Goerne (baritone), Helmut Deutsch (piano)"
    REM DATE 2008
    INDEX 01 00:00:00
    FILE "19 - Abschied von der Harfe (Salis-Seewis), D. 406.flac" WAVE
    TRACK 19 AUDIO
    TITLE "Abschied von der Harfe (Salis-Seewis), D. 406"
    PERFORMER "Matthias Goerne (baritone), Helmut Deutsch (piano)"
    REM DATE 2008
    INDEX 01 00:00:00
    FILE "20 - Liedesend (Mayrhofer), D. 473.flac" WAVE
    TRACK 20 AUDIO
    TITLE "Liedesend (Mayrhofer), D. 473"
    PERFORMER "Matthias Goerne (baritone), Helmut Deutsch (piano)"
    REM DATE 2008
    INDEX 01 00:00:00

    CD 2

    TITLE "Matthias Goerne Schubert Edition. Volume 2"
    PERFORMER "Matthias Goerne"
    REM GENRE Classical
    REM DISCID 51105E17
    REM COMMENT "ExactAudioCopy v1.0b3"
    FILE "01 - Das Heimweh (Hell), D. 456.flac" WAVE
    TRACK 01 AUDIO
    TITLE "Das Heimweh (Hell), D. 456"
    PERFORMER "Matthias Goerne (baritone), Eric Schneider (piano)"
    REM DATE 2007
    INDEX 01 00:00:00
    FILE "02 - Auf der Donau (Mayrhofer), D. 553.flac" WAVE
    TRACK 02 AUDIO
    TITLE "Auf der Donau (Mayrhofer), D. 553"
    PERFORMER "Matthias Goerne (baritone), Eric Schneider (piano)"
    REM DATE 2007
    INDEX 01 00:00:00
    FILE "03 - Wie Ulfru fischt (Mayrhofer), D. 525.flac" WAVE
    TRACK 03 AUDIO
    TITLE "Wie Ulfru fischt (Mayrhofer), D. 525"
    PERFORMER "Matthias Goerne (baritone), Eric Schneider (piano)"
    REM DATE 2007
    INDEX 01 00:00:00
    FILE "04 - Die Sternennaechte (Mayrhofer), D. 670.flac" WAVE
    TRACK 04 AUDIO
    TITLE "Die Sternennächte (Mayrhofer), D. 670"
    PERFORMER "Matthias Goerne (baritone), Eric Schneider (piano)"
    REM DATE 2007
    INDEX 01 00:00:00
    FILE "05 - Rueckweg (Mayrhofer), D. 476.flac" WAVE
    TRACK 05 AUDIO
    TITLE "Rückweg (Mayrhofer), D. 476"
    PERFORMER "Matthias Goerne (baritone), Eric Schneider (piano)"
    REM DATE 2007
    INDEX 01 00:00:00
    FILE "06 - Geheimnis (Mayrhofer), D. 491.flac" WAVE
    TRACK 06 AUDIO
    TITLE "Geheimnis (Mayrhofer), D. 491"
    PERFORMER "Matthias Goerne (baritone), Eric Schneider (piano)"
    REM DATE 2007
    INDEX 01 00:00:00
    FILE "07 - Gondelfahrer (Mayrhofer), D. 808.flac" WAVE
    TRACK 07 AUDIO
    TITLE "Gondelfahrer (Mayrhofer), D. 808"
    PERFORMER "Matthias Goerne (baritone), Eric Schneider (piano)"
    REM DATE 2007
    INDEX 01 00:00:00
    FILE "08 - Abendstern (Mayrhofer), D. 806.flac" WAVE
    TRACK 08 AUDIO
    TITLE "Abendstern (Mayrhofer), D. 806"
    PERFORMER "Matthias Goerne (baritone), Eric Schneider (piano)"
    REM DATE 2007
    INDEX 01 00:00:00
    FILE "09 - Der Sieg (Mayrhofer), D. 805.flac" WAVE
    TRACK 09 AUDIO
    TITLE "Der Sieg (Mayrhofer), D. 805"
    PERFORMER "Matthias Goerne (baritone), Eric Schneider (piano)"
    REM DATE 2007
    INDEX 01 00:00:00
    FILE "10 - Nachtstueck (Mayrhofer), D. 672.flac" WAVE
    TRACK 10 AUDIO
    TITLE "Nachtstück (Mayrhofer), D. 672"
    PERFORMER "Matthias Goerne (baritone), Eric Schneider (piano)"
    REM DATE 2007
    INDEX 01 00:00:00
    FILE "11 - Aufloesung (Mayrhofer), D. 807.flac" WAVE
    TRACK 11 AUDIO
    TITLE "Auflösung (Mayrhofer), D. 807"
    PERFORMER "Matthias Goerne (baritone), Eric Schneider (piano)"
    REM DATE 2007
    INDEX 01 00:00:00
    FILE "12 - Heiss mich nicht reden (Goethe), D. 877 Nr. 2.flac" WAVE
    TRACK 12 AUDIO
    TITLE "Heiss mich nicht reden (Goethe), D. 877 Nr. 2"
    PERFORMER "Matthias Goerne (baritone), Eric Schneider (piano)"
    REM DATE 2007
    INDEX 01 00:00:00
    FILE "13 - Nun wer die Sehnsucht kennt (Goethe), D. 877 Nr. 4.flac" WAVE
    TRACK 13 AUDIO
    TITLE "Nun wer die Sehnsucht kennt (Goethe), D. 877 Nr. 4"
    PERFORMER "Matthias Goerne (baritone), Eric Schneider (piano)"
    REM DATE 2007
    INDEX 01 00:00:00
    FILE "14 - An Mignon (Goethe), D. 161.flac" WAVE
    TRACK 14 AUDIO
    TITLE "An Mignon (Goethe), D. 161"
    PERFORMER "Matthias Goerne (baritone), Eric Schneider (piano)"
    REM DATE 2007
    INDEX 01 00:00:00
    FILE "15 - Gesaenge des Harfners (Goethe) - I. Wer sich der Einsamkeit ergibt, D. 478.flac" WAVE
    TRACK 15 AUDIO
    TITLE "Gesänge des Harfners (Goethe): I. Wer sich der Einsamkeit ergibt, D. 478"
    PERFORMER "Matthias Goerne (baritone), Eric Schneider (piano)"
    REM DATE 2007
    INDEX 01 00:00:00
    FILE "16 - Gesaenge des Harfners (Goethe) - III. Wer nie sein Brot mit Traenen ass, D. 480.flac" WAVE
    TRACK 16 AUDIO
    TITLE "Gesänge des Harfners (Goethe): III. Wer nie sein Brot mit Tränen aß, D. 480"
    PERFORMER "Matthias Goerne (baritone), Eric Schneider (piano)"
    REM DATE 2007
    INDEX 01 00:00:00
    FILE "17 - Gesaenge des Harfners (Goethe) - II. An die Tueren will ich schleichen, D. 479.flac" WAVE
    TRACK 17 AUDIO
    TITLE "Gesänge des Harfners (Goethe): II. An die Türen will ich schleichen, D. 479"
    PERFORMER "Matthias Goerne (baritone), Eric Schneider (piano)"
    REM DATE 2007
    INDEX 01 00:00:00
    FILE "18 - Am Flusse (Goethe), D. 160.flac" WAVE
    TRACK 18 AUDIO
    TITLE "Am Flusse (Goethe), D. 160"
    PERFORMER "Matthias Goerne (baritone), Eric Schneider (piano)"
    REM DATE 2007
    INDEX 01 00:00:00
    FILE "19 - Naehe des Geliebten (Goethe), D. 162.flac" WAVE
    TRACK 19 AUDIO
    TITLE "Nähe des Geliebten (Goethe), D. 162"
    PERFORMER "Matthias Goerne (baritone), Eric Schneider (piano)"
    REM DATE 2007
    INDEX 01 00:00:00
    FILE "20 - Der Fischer (Goethe), D. 225.flac" WAVE
    TRACK 20 AUDIO
    TITLE "Der Fischer (Goethe), D. 225"
    PERFORMER "Matthias Goerne (baritone), Eric Schneider (piano)"
    REM DATE 2007
    INDEX 01 00:00:00
    FILE "21 - Auf dem See (Goethe), D. 543.flac" WAVE
    TRACK 21 AUDIO
    TITLE "Auf dem See (Goethe), D. 543"
    PERFORMER "Matthias Goerne (baritone), Eric Schneider (piano)"
    REM DATE 2007
    INDEX 01 00:00:00
    FILE "22 - Wonne der Wehmut (Goethe), D. 260.flac" WAVE
    TRACK 22 AUDIO
    TITLE "Wonne der Wehmut (Goethe), D. 260"
    PERFORMER "Matthias Goerne (baritone), Eric Schneider (piano)"
    REM DATE 2007
    INDEX 01 00:00:00
    FILE "23 - Willkommen und Abschied (Goethe), D. 767.flac" WAVE
    TRACK 23 AUDIO
    TITLE "Willkommen und Abschied (Goethe), D. 767"
    PERFORMER "Matthias Goerne (baritone), Eric Schneider (piano)"
    REM DATE 2007
    INDEX 01 00:00:00
    -
    Matthias Goerne Schubert Edition — все раздачиFranz Schubert — каталог раздач на rutracker.orgВсе мои раздачи / All my releases



  • Показать сообщения:    

    Текущее время: 05-Дек 07:31

    Часовой пояс: UTC + 3


    Вы не можете начинать темы
    Вы не можете отвечать на сообщения
    Вы не можете редактировать свои сообщения
    Вы не можете удалять свои сообщения
    Вы не можете голосовать в опросах
    Вы не можете прикреплять файлы к сообщениям
    Вы не можете скачивать файлы