(Classical / Violin / Cello Concerto) Александров - Гимн СССР; Brahms - Konzert fur Violine • Doppelkonzert fur Violine und Violoncello (Ойстрах, Ростропович, Кондрашин / Oistrakh, Rostropovich, Kondrashin, 1963/65) 2006, FLAC (tracks+.cue) lossless


Статистика раздачи [Обновить пиров]
Размер:  208 MB   |    Зарегистрирован:  8 месяцев 25 дней   |    Скачан:  0 раз

Полного источника не было: Никогда

 
   
 
 
 

[Цитировать]

Johannes Brahms | Йоханнес Брамс
(1833–1897)



Konzert für ViolineDoppelkonzert für Violine und Violoncello
Концерт для скрипкиДвойной концерт для скрипки и виолончели


Давид Ойстрах скрипкаМстислав Ростропович виолончель
Симфонический оркестр Московской филармонии
Кирилл Кондрашин дирижёр


Жанр: Classical / Violin / Cello Concerto
Даты и место записи: London, 19 September 1963 & 9 October 1965
Формат записи: ADD, Mono
Год издания диска: 2006
Издатель (лейбл): BBC Legends
Номер по каталогу: BBCL 4197-2
Аудиокодек: FLAC
Тип рипа: tracks+.cue
Битрейт аудио: lossless
Продолжительность: 1:12:04
Наличие сканов в содержимом раздачи: да
Источник: What.CD
Релизёр: rangdrol


Tracklist / Треклист
Александр Александров
Гимн СССР (National Anthem of USSR) - 1:23
Recorded: Royal Festival Hall, London, 19 September 1963
Johannes Brahms
Konzert für Violine und Orchester D-dur, Op. 77 - 38:22
I. Allegro non troppo - 21:20
  • II. Adagio - 9:02
  • III. Allegro giocoso, ma non troppo vivace - 7:59
    Recorded: Royal Festival Hall, London, 19 September 1963
    Konzert für Violine, Violoncello und Orchester a-moll, Op. 102 - 32:19
    I. Allegro - 15:59
  • II. Andante - 7:51
  • III. Vivace non troppo - 8:29
    Recorded: Royal Albert Hall, London, 9 October 1965

    -

    EAC log / Отчёт EAC

    Exact Audio Copy V1.0 beta 3 from 29. August 2011
    EAC extraction logfile from 21. November 2012, 13:35
    Oistrakh, Rostropovich, Moscow Philharmonic Orchestra / Brahms: Violin Concerto, Double Coincerto
    Used drive : PLDS DVD+-RW DS-8A5SH Adapter: 1 ID: 0
    Read mode : Secure
    Utilize accurate stream : Yes
    Defeat audio cache : Yes
    Make use of C2 pointers : No
    Read offset correction : 6
    Overread into Lead-In and Lead-Out : No
    Fill up missing offset samples with silence : Yes
    Delete leading and trailing silent blocks : No
    Null samples used in CRC calculations : Yes
    Used interface : Installed external ASPI interface
    Gap handling : Appended to previous track
    Used output format : User Defined Encoder
    Selected bitrate : 1024 kBit/s
    Quality : High
    Add ID3 tag : No
    Command line compressor : C:\Program Files\Exact Audio Copy\Flac\flac.exe
    Additional command line options : -8 -V -T "ARTIST=%artist%" -T "TITLE=%title%" -T "ALBUM=%albumtitle%" -T "DATE=%year%" -T "TRACKNUMBER=%tracknr%" -T "GENRE=%genre%" -T "PERFORMER=%albuminterpret%" -T "COMPOSER=%composer%" %haslyrics%--tag-from-file=LYRICS="%lyricsfile%"%haslyrics% -T "ALBUMARTIST=%albumartist%" -T "DISCNUMBER=%cdnumber%" -T "TOTALDISCS=%totalcds%" -T "TOTALTRACKS=%numtracks%" -T "COMMENT=%comment%" %source% -o %dest%
    TOC of the extracted CD
    Track | Start | Length | Start sector | End sector
    ---------------------------------------------------------
    1 | 0:00.00 | 1:23.09 | 0 | 6233
    2 | 1:23.09 | 21:20.29 | 6234 | 102262
    3 | 22:43.38 | 9:01.54 | 102263 | 142891
    4 | 31:45.17 | 7:59.36 | 142892 | 178852
    5 | 39:44.53 | 15:58.63 | 178853 | 250765
    6 | 55:43.41 | 7:51.33 | 250766 | 286123
    7 | 63:34.74 | 8:28.63 | 286124 | 324286
    Track 1
    Filename H:\Music\EAC\Brahms - Violin Concerto, Double Concerto (2006) [FLAC]\01 - National Anthem of the USSR.wav
    Pre-gap length 0:00:02.00
    Peak level 80.6 %
    Extraction speed 2.0 X
    Track quality 100.0 %
    Test CRC 5259EBCE
    Copy CRC 5259EBCE
    Accurately ripped (confidence 4) [24100A7F] (AR v1)
    Copy OK
    Track 2
    Filename H:\Music\EAC\Brahms - Violin Concerto, Double Concerto (2006) [FLAC]\02 - Concerto for Violin and Orchestra in D major, Op.77 - I. Allegro non troppo.wav
    Pre-gap length 0:00:10.42
    Peak level 84.0 %
    Extraction speed 3.7 X
    Track quality 100.0 %
    Test CRC E810E048
    Copy CRC E810E048
    Accurately ripped (confidence 4) [6DCD2465] (AR v1)
    Copy OK
    Track 3
    Filename H:\Music\EAC\Brahms - Violin Concerto, Double Concerto (2006) [FLAC]\03 - Concerto for Violin and Orchestra in D major, Op.77 - II. Adagio.wav
    Pre-gap length 0:00:16.02
    Peak level 71.1 %
    Extraction speed 4.4 X
    Track quality 100.0 %
    Test CRC 3F6E301E
    Copy CRC 3F6E301E
    Accurately ripped (confidence 4) [A791377D] (AR v1)
    Copy OK
    Track 4
    Filename H:\Music\EAC\Brahms - Violin Concerto, Double Concerto (2006) [FLAC]\04 - Concerto for Violin and Orchestra in D major, Op.77 - III. Allegro giocoso, ma non troppo vivace.wav
    Pre-gap length 0:00:13.36
    Peak level 83.2 %
    Extraction speed 4.8 X
    Track quality 100.0 %
    Test CRC 1E3F690C
    Copy CRC 1E3F690C
    Accurately ripped (confidence 4) [5E1175BF] (AR v1)
    Copy OK
    Track 5
    Filename H:\Music\EAC\Brahms - Violin Concerto, Double Concerto (2006) [FLAC]\05 - Concerto for Violin, Violoncello, and Orchestra in A minor, Op.102 - I. Allegro.wav
    Pre-gap length 0:00:09.01
    Peak level 85.9 %
    Extraction speed 5.4 X
    Track quality 100.0 %
    Test CRC E390B795
    Copy CRC E390B795
    Accurately ripped (confidence 4) [9846A04C] (AR v1)
    Copy OK
    Track 6
    Filename H:\Music\EAC\Brahms - Violin Concerto, Double Concerto (2006) [FLAC]\06 - Concerto for Violin, Violoncello, and Orchestra in A minor, Op.102 - Op.102 - II. Andante.wav
    Pre-gap length 0:00:13.07
    Peak level 39.4 %
    Extraction speed 5.0 X
    Track quality 99.9 %
    Test CRC 2137CAE2
    Copy CRC 2137CAE2
    Accurately ripped (confidence 4) [80ED1DEE] (AR v1)
    Copy OK
    Track 7
    Filename H:\Music\EAC\Brahms - Violin Concerto, Double Concerto (2006) [FLAC]\07 - Concerto for Violin, Violoncello, and Orchestra in A minor, Op.102 - Op.102 - III. Vivace non troppo.wav
    Pre-gap length 0:00:11.05
    Peak level 89.0 %
    Extraction speed 5.9 X
    Track quality 100.0 %
    Test CRC 7558F55A
    Copy CRC 7558F55A
    Accurately ripped (confidence 4) [43034E08] (AR v1)
    Copy OK
    All tracks accurately ripped
    No errors occurred
    End of status report
    ==== Log checksum E4A3FA38A4B033AA733F62AD1F885A7822CD3B1621F37E52BE19FA3A8F90C7F9 ====

    auCDtect Task Manager log / Отчёт auCDtect Task Manager

    -----------------------
    DON'T MODIFY THIS FILE
    -----------------------
    PERFORMER: auCDtect Task Manager, ver. 1.5.1RC3 build 1.5.1.4
    Copyright (c) 2008-2010 y-soft. All rights reserved
    ANALYZER: auCDtect: CD records authenticity detector, version 0.8.2
    Copyright (c) 2004 Oleg Berngardt. All rights reserved.
    Copyright (c) 2004 Alexander Djourik. All rights reserved.
    FILE: 05 - Konzert fuer Violine, Violoncello und Orchester a-moll, Op. 102 - I. Allegro.flac
    Size: 51763941 Hash: EA17578AD3B2C2711569EF7D57943A69 Accuracy: -m0
    Conclusion: CDDA 99%
    Signature: CCCF41BEF76A45F76447E37D703FB8E8BF92A146
    FILE: 04 - Konzert fuer Violine und Orchester D-dur, Op. 77 - III. Allegro giocoso, ma non troppo vivace.flac
    Size: 22339364 Hash: 05BB7D2814AD5AC61583489CBE35084F Accuracy: -m0
    Conclusion: CDDA 100%
    Signature: 62458FD3714AF47031C0C97CE4CD98A52417E240
    FILE: 03 - Konzert fuer Violine und Orchester D-dur, Op. 77 - II. Adagio.flac
    Size: 24081228 Hash: 2BA49C5FBA65CCB76E9D3C4650C18738 Accuracy: -m0
    Conclusion: CDDA 100%
    Signature: ABA5D1C0A67D381E71364531AAB353AE991E894D
    FILE: 02 - Konzert fuer Violine und Orchester D-dur, Op. 77 - I. Allegro non troppo.flac
    Size: 58969246 Hash: 84FF547688681E17F9530EB322842017 Accuracy: -m0
    Conclusion: CDDA 100%
    Signature: AE3EE93E4EA139AA273D4262C4E4CA1878AFCD00
    FILE: 01 - National Anthem of USSR.flac
    Size: 4279643 Hash: 2EC7A44AE3E05EEFFF91B064F0897641 Accuracy: -m0
    Conclusion: CDDA 100%
    Signature: 767D2FDA6C921BB653090C9D63C0E939B3A0B3ED
    FILE: 07 - Konzert fuer Violine, Violoncello und Orchester a-moll, Op. 102 - III. Vivace non troppo.flac
    Size: 27635480 Hash: 9074366CB74581FFC1492D7B590F194F Accuracy: -m0
    Conclusion: CDDA 100%
    Signature: 4C1DD1B8E8D22F7A486F7434FBFB3FC36F737397
    FILE: 06 - Konzert fuer Violine, Violoncello und Orchester a-moll, Op. 102 - II. Andante.flac
    Size: 24510074 Hash: CB8CF7AF434506FE2BFC7DD87D30D40D Accuracy: -m0
    Conclusion: CDDA 99%
    Signature: C8BF1EE86BBB977A85CA8B397D81ED76267EC1CE

    CUETools log / Отчёт CUETools

    [CUETools log; Date: 10.11.2013 19:20:54; Version: 2.1.4]
    [AccurateRip ID: 0013b49b-00785803-6310e307] found.
    Track [ CRC | V2 ] Status
    01 [24100a7f|20bfc9c8] (5+2/7) Accurately ripped
    02 [6dcd2465|1f36e709] (5+2/7) Accurately ripped
    03 [a791377d|768d260d] (5+2/7) Accurately ripped
    04 [5e1175bf|82a262f5] (5+2/7) Accurately ripped
    05 [9846a04c|f4c7670f] (5+2/7) Accurately ripped
    06 [80ed1dee|afb2b14d] (5+2/7) Accurately ripped
    07 [43034e08|baf4a6c4] (5+2/7) Accurately ripped
    Track Peak [ CRC32 ] [W/O NULL] [ LOG ]
    -- 89,0 [781802B9] [1BA2FEA2]
    01 80,6 [5259EBCE] [E395BC99] CRC32
    02 84,0 [E810E048] [07DFE12B] CRC32
    03 71,1 [3F6E301E] [9E7B6B46] CRC32
    04 83,2 [1E3F690C] [50E0642B] CRC32
    05 85,9 [E390B795] [65EA7BD3] CRC32
    06 39,4 [2137CAE2] [60CC3BAA] CRC32
    07 89,0 [7558F55A] [9141157A] CRC32

    CUE sheet

    TITLE "Johannes Brahms: Violinkonzert • Doppelkonzert"
    PERFORMER "Kyrill Kondrashin"
    REM GENRE Classical
    REM DISCID 6310E307
    REM COMMENT "ExactAudioCopy v1.0b3"
    FILE "01 - National Anthem of USSR.flac" WAVE
    TRACK 01 AUDIO
    TITLE "National Anthem of USSR"
    PERFORMER "Moscow Philharmonic Orchestra. Kyrill Kondrashin, conductor"
    REM DATE 1963
    FLAGS DCP
    INDEX 01 00:00:00
    TRACK 02 AUDIO
    TITLE "Konzert für Violine und Orchester D-dur, Op. 77: I. Allegro non troppo"
    PERFORMER "David Oistrakh, Moscow Philharmonic Orchestra. Kyrill Kondrashin, conductor"
    REM DATE 1963
    FLAGS DCP
    INDEX 00 01:12:42
    FILE "02 - Konzert fuer Violine und Orchester D-dur, Op. 77 - I. Allegro non troppo.flac" WAVE
    INDEX 01 00:00:00
    TRACK 03 AUDIO
    TITLE "Konzert für Violine und Orchester D-dur, Op. 77: II. Adagio"
    PERFORMER "David Oistrakh, Moscow Philharmonic Orchestra. Kyrill Kondrashin, conductor"
    REM DATE 1963
    FLAGS DCP
    INDEX 00 21:04:27
    FILE "03 - Konzert fuer Violine und Orchester D-dur, Op. 77 - II. Adagio.flac" WAVE
    INDEX 01 00:00:00
    TRACK 04 AUDIO
    TITLE "Konzert für Violine und Orchester D-dur, Op. 77: III. Allegro giocoso, ma non troppo vivace"
    PERFORMER "David Oistrakh, Moscow Philharmonic Orchestra. Kyrill Kondrashin, conductor"
    REM DATE 1963
    FLAGS DCP
    INDEX 00 08:48:18
    FILE "04 - Konzert fuer Violine und Orchester D-dur, Op. 77 - III. Allegro giocoso, ma non troppo vivace.flac" WAVE
    INDEX 01 00:00:00
    TRACK 05 AUDIO
    TITLE "Konzert für Violine, Violoncello und Orchester a-moll, Op. 102: I. Allegro"
    PERFORMER "David Oistrakh, Mstislav Rostropovich, Moscow Philharmonic Orchestra. Kyrill Kondrashin, conductor"
    REM DATE 1965
    FLAGS DCP
    INDEX 00 07:50:35
    FILE "05 - Konzert fuer Violine, Violoncello und Orchester a-moll, Op. 102 - I. Allegro.flac" WAVE
    INDEX 01 00:00:00
    TRACK 06 AUDIO
    TITLE "Konzert für Violine, Violoncello und Orchester a-moll, Op. 102: II. Andante"
    PERFORMER "David Oistrakh, Mstislav Rostropovich, Moscow Philharmonic Orchestra. Kyrill Kondrashin, conductor"
    REM DATE 1965
    FLAGS DCP
    INDEX 00 15:45:56
    FILE "06 - Konzert fuer Violine, Violoncello und Orchester a-moll, Op. 102 - II. Andante.flac" WAVE
    INDEX 01 00:00:00
    TRACK 07 AUDIO
    TITLE "Konzert für Violine, Violoncello und Orchester a-moll, Op. 102: III. Vivace non troppo"
    PERFORMER "David Oistrakh, Mstislav Rostropovich, Moscow Philharmonic Orchestra. Kyrill Kondrashin, conductor"
    REM DATE 1965
    FLAGS DCP
    INDEX 00 07:40:28
    FILE "07 - Konzert fuer Violine, Violoncello und Orchester a-moll, Op. 102 - III. Vivace non troppo.flac" WAVE
    INDEX 01 00:00:00
    -
    Johannes Brahms — каталог раздач на rutracker.orgВсе мои раздачи / All my releases
    [teatrix.ru].t17829.torrent 
    Торрент: Зарегистрирован [ 2016-03-17 00:49 ] · 660F1A549052BFDBC163309EDA4492EF9F526894

    Скачать .torrent

    Скачать

    18 KB

    Статус: проверено
    Скачан: 0 раз
    Размер: 208 MB
    terms.php



  • Быстрый ответ

    Имя:

          
    Для отправки сообщений необходимо включить JavaScript
    Показать сообщения:    

    Текущее время: 11-Дек 16:55

    Часовой пояс: UTC + 3


    Вы можете начинать темы
    Вы можете отвечать на сообщения
    Вы не можете редактировать свои сообщения
    Вы не можете удалять свои сообщения
    Вы не можете голосовать в опросах
    Вы не можете прикреплять файлы к сообщениям
    Вы можете скачивать файлы