(Classical / Vocal) Matthias Goerne Schubert Edition, Volume 5: «Nacht und Traume» (Matthias Goerne, Alexander Schmalcz, 2008) - 2011, FLAC (tracks+.cue) lossless


 

[Цитировать]

Franz Schubert | Франц Шуберт
(1797–1828)



Matthias Goerne Schubert Edition
Volume 5. «Nacht und Träume»



Matthias Goerne baritoneAlexander Schmalcz piano


Жанр: Classical / Vocal
Дата и место записи: Teldex Studio, Berlin, September 2008
Формат записи: DDD, Stereo
Год издания диска: 2011
Издатель (лейбл): Harmonia Mundi
Номер по каталогу: HMC 902063
Аудиокодек: FLAC
Тип рипа: tracks+.cue
Битрейт аудио: lossless
Продолжительность: 1:00:39
Наличие сканов в содержимом раздачи: только обложка
Источник: What.CD
Релизёр: DrLove


Tracklist / Треклист
Nacht und Träume (Collin), D. 827 - 4:08
  • Der blinde Knabe (Cibber / Craghier), D. 833 - 3:19
  • Hoffnung (Schiller), D. 637 - 3:37
  • Totengräberweise (Schlechta), D. 869 - 4:24
  • Im Jänner 1817 (Tiefes Leid) (Schulze), D. 876 - 3:23
  • Greisengesang (Rückert), D. 778 - 6:12
  • Totengräbers Heimweh (Craghier), D. 842 - 7:01
  • An den Mond (Hölty), D. 193 - 3:30
  • Die Mainacht (Hölty), D. 194 - 1:54
  • An Sylvia (Shakespeare / Bauernfeld), D. 891 - 3:04
  • Ständchen (Horch, horch! die Lerch) (Shakespeare / Schlegel), D. 889 - 4:47
  • Der Schäfer und der Reiter (de la Motte Fouqué), D. 517 - 3:26
  • Die Sommernacht (Klopstock), D. 289 - 3:17
  • Erntelied (Hölty), D. 434 - 1:58
  • Herbstlied (Salis-Seewis), D. 502 - 1:27
  • Der liebliche Stern (Schulze), D. 861 - 3:01
  • An die Geliebte (Stoll), D. 303 - 2:10

    -

    XLD log / Отчёт XLD

    X Lossless Decoder version 20111015 (136.4)
    XLD extraction logfile from 2011-11-01 22:50:05 +0000
    Matthias Goerne (Bariton), Alexander Schmalcz (Piano) / Schubert, Nacht und Träume
    Used drive : OPTIARC DVD RW AD-5680H (revision 3AHF)
    Ripper mode : XLD Secure Ripper
    Disable audio cache : OK for the drive with a cache less than 1375KiB
    Make use of C2 pointers : NO
    Read offset correction : 48
    Max retry count : 20
    Gap status : Analyzed, Appended (except HTOA)
    TOC of the extracted CD
    Track | Start | Length | Start sector | End sector
    ---------------------------------------------------------
    1 | 00:00:00 | 04:08:01 | 0 | 18600
    2 | 04:08:01 | 03:19:06 | 18601 | 33531
    3 | 07:27:07 | 03:37:20 | 33532 | 49826
    4 | 11:04:27 | 04:24:33 | 49827 | 69659
    5 | 15:28:60 | 03:22:61 | 69660 | 84870
    6 | 18:51:46 | 06:11:42 | 84871 | 112737
    7 | 25:03:13 | 07:00:61 | 112738 | 144298
    8 | 32:03:74 | 03:29:45 | 144299 | 160018
    9 | 35:33:44 | 01:53:69 | 160019 | 168562
    10 | 37:27:38 | 03:03:71 | 168563 | 182358
    11 | 40:31:34 | 04:47:35 | 182359 | 203918
    12 | 45:18:69 | 03:26:33 | 203919 | 219401
    13 | 48:45:27 | 03:17:01 | 219402 | 234177
    14 | 52:02:28 | 01:57:50 | 234178 | 243002
    15 | 54:00:03 | 01:27:01 | 243003 | 249528
    16 | 55:27:04 | 03:01:16 | 249529 | 263119
    17 | 58:28:20 | 02:10:33 | 263120 | 272902
    AccurateRip Summary
    Track 01 : OK (AR2, confidence 3)
    Track 02 : OK (AR2, confidence 3)
    Track 03 : OK (AR2, confidence 3)
    Track 04 : OK (AR2, confidence 3)
    Track 05 : OK (AR2, confidence 3)
    Track 06 : OK (AR2, confidence 3)
    Track 07 : OK (AR2, confidence 3)
    Track 08 : OK (AR2, confidence 3)
    Track 09 : OK (AR2, confidence 3)
    Track 10 : OK (AR2, confidence 3)
    Track 11 : OK (AR2, confidence 3)
    Track 12 : OK (AR2, confidence 3)
    Track 13 : OK (AR2, confidence 3)
    Track 14 : OK (AR2, confidence 3)
    Track 15 : OK (AR2, confidence 3)
    Track 16 : OK (AR2, confidence 3)
    Track 17 : OK (AR2, confidence 3)
    ->All tracks accurately ripped.
    All Tracks
    Album gain : 4.63 dB
    Peak : 0.988831
    Statistics
    Read error : 0
    Jitter error (maybe fixed) : 0
    Retry sector count : 0
    Damaged sector count : 0
    Track 01
    Filename : /Volumes/My Disk/XLD converted FLAC/Matthias Goerne (Bariton), Alexander Schmalcz (Piano) - Schubert, Nacht und Träume (2011) [LAME MP3 (CBR 320kbps)]/01 Nacht und Träume D.827.mp3
    /Volumes/My Disk/XLD converted FLAC/Matthias Goerne (Bariton), Alexander Schmalcz (Piano) - Schubert, Nacht und Träume (2011) [FLAC (level 8)]/01 Nacht und Träume D.827.flac
    /Volumes/My Disk/XLD converted FLAC/Matthias Goerne (Bariton), Alexander Schmalcz (Piano) - Schubert, Nacht und Träume (2011) [LAME MP3 (VBR-new quality 0.0)]/01 Nacht und Träume D.827.mp3
    Pre-gap length : 00:02:00
    Track gain : 7.49 dB
    Peak : 0.362061
    CRC32 hash (test run) : 5B4ABCE6
    CRC32 hash : 5B4ABCE6
    CRC32 hash (skip zero) : F78E0019
    AccurateRip signature : 858DE8B6
    ->Accurately ripped! (AR2, confidence 3)
    Statistics
    Read error : 0
    Jitter error (maybe fixed) : 0
    Retry sector count : 0
    Damaged sector count : 0
    Track 02
    Filename : /Volumes/My Disk/XLD converted FLAC/Matthias Goerne (Bariton), Alexander Schmalcz (Piano) - Schubert, Nacht und Träume (2011) [LAME MP3 (CBR 320kbps)]/02 Der blinde Knabe D.833.mp3
    /Volumes/My Disk/XLD converted FLAC/Matthias Goerne (Bariton), Alexander Schmalcz (Piano) - Schubert, Nacht und Träume (2011) [FLAC (level 8)]/02 Der blinde Knabe D.833.flac
    /Volumes/My Disk/XLD converted FLAC/Matthias Goerne (Bariton), Alexander Schmalcz (Piano) - Schubert, Nacht und Träume (2011) [LAME MP3 (VBR-new quality 0.0)]/02 Der blinde Knabe D.833.mp3
    Track gain : 6.74 dB
    Peak : 0.357330
    CRC32 hash (test run) : 558AF0DD
    CRC32 hash : 558AF0DD
    CRC32 hash (skip zero) : 5DE6AE26
    AccurateRip signature : B294515A
    ->Accurately ripped! (AR2, confidence 3)
    Statistics
    Read error : 0
    Jitter error (maybe fixed) : 0
    Retry sector count : 0
    Damaged sector count : 0
    Track 03
    Filename : /Volumes/My Disk/XLD converted FLAC/Matthias Goerne (Bariton), Alexander Schmalcz (Piano) - Schubert, Nacht und Träume (2011) [LAME MP3 (CBR 320kbps)]/03 Hoffnung D.637.mp3
    /Volumes/My Disk/XLD converted FLAC/Matthias Goerne (Bariton), Alexander Schmalcz (Piano) - Schubert, Nacht und Träume (2011) [FLAC (level 8)]/03 Hoffnung D.637.flac
    /Volumes/My Disk/XLD converted FLAC/Matthias Goerne (Bariton), Alexander Schmalcz (Piano) - Schubert, Nacht und Träume (2011) [LAME MP3 (VBR-new quality 0.0)]/03 Hoffnung D.637.mp3
    Track gain : 8.13 dB
    Peak : 0.427460
    CRC32 hash (test run) : 73A7C17C
    CRC32 hash : 73A7C17C
    CRC32 hash (skip zero) : B4010D40
    AccurateRip signature : DB63ADAD
    ->Accurately ripped! (AR2, confidence 3)
    Statistics
    Read error : 0
    Jitter error (maybe fixed) : 0
    Retry sector count : 0
    Damaged sector count : 0
    Track 04
    Filename : /Volumes/My Disk/XLD converted FLAC/Matthias Goerne (Bariton), Alexander Schmalcz (Piano) - Schubert, Nacht und Träume (2011) [LAME MP3 (CBR 320kbps)]/04 Totengräberweise D.869.mp3
    /Volumes/My Disk/XLD converted FLAC/Matthias Goerne (Bariton), Alexander Schmalcz (Piano) - Schubert, Nacht und Träume (2011) [FLAC (level 8)]/04 Totengräberweise D.869.flac
    /Volumes/My Disk/XLD converted FLAC/Matthias Goerne (Bariton), Alexander Schmalcz (Piano) - Schubert, Nacht und Träume (2011) [LAME MP3 (VBR-new quality 0.0)]/04 Totengräberweise D.869.mp3
    Track gain : 1.99 dB
    Peak : 0.988342
    CRC32 hash (test run) : 5AC5370A
    CRC32 hash : 5AC5370A
    CRC32 hash (skip zero) : BAEFDD57
    AccurateRip signature : B540CC79
    ->Accurately ripped! (AR2, confidence 3)
    Statistics
    Read error : 0
    Jitter error (maybe fixed) : 0
    Retry sector count : 0
    Damaged sector count : 0
    Track 05
    Filename : /Volumes/My Disk/XLD converted FLAC/Matthias Goerne (Bariton), Alexander Schmalcz (Piano) - Schubert, Nacht und Träume (2011) [LAME MP3 (CBR 320kbps)]/05 Tiefes Leid D.876.mp3
    /Volumes/My Disk/XLD converted FLAC/Matthias Goerne (Bariton), Alexander Schmalcz (Piano) - Schubert, Nacht und Träume (2011) [FLAC (level 8)]/05 Tiefes Leid D.876.flac
    /Volumes/My Disk/XLD converted FLAC/Matthias Goerne (Bariton), Alexander Schmalcz (Piano) - Schubert, Nacht und Träume (2011) [LAME MP3 (VBR-new quality 0.0)]/05 Tiefes Leid D.876.mp3
    Track gain : 3.30 dB
    Peak : 0.779785
    CRC32 hash (test run) : 0F0306BC
    CRC32 hash : 0F0306BC
    CRC32 hash (skip zero) : 942B1ED5
    AccurateRip signature : 4343C4D6
    ->Accurately ripped! (AR2, confidence 3)
    Statistics
    Read error : 0
    Jitter error (maybe fixed) : 0
    Retry sector count : 0
    Damaged sector count : 0
    Track 06
    Filename : /Volumes/My Disk/XLD converted FLAC/Matthias Goerne (Bariton), Alexander Schmalcz (Piano) - Schubert, Nacht und Träume (2011) [LAME MP3 (CBR 320kbps)]/06 Greisengesand D.778.mp3
    /Volumes/My Disk/XLD converted FLAC/Matthias Goerne (Bariton), Alexander Schmalcz (Piano) - Schubert, Nacht und Träume (2011) [FLAC (level 8)]/06 Greisengesand D.778.flac
    /Volumes/My Disk/XLD converted FLAC/Matthias Goerne (Bariton), Alexander Schmalcz (Piano) - Schubert, Nacht und Träume (2011) [LAME MP3 (VBR-new quality 0.0)]/06 Greisengesand D.778.mp3
    Track gain : 7.32 dB
    Peak : 0.511871
    CRC32 hash (test run) : B1DCC1DA
    CRC32 hash : B1DCC1DA
    CRC32 hash (skip zero) : DD76AB49
    AccurateRip signature : 703732ED
    ->Accurately ripped! (AR2, confidence 3)
    Statistics
    Read error : 0
    Jitter error (maybe fixed) : 0
    Retry sector count : 0
    Damaged sector count : 0
    Track 07
    Filename : /Volumes/My Disk/XLD converted FLAC/Matthias Goerne (Bariton), Alexander Schmalcz (Piano) - Schubert, Nacht und Träume (2011) [LAME MP3 (CBR 320kbps)]/07 Totengräbers Heimweh D.842.mp3
    /Volumes/My Disk/XLD converted FLAC/Matthias Goerne (Bariton), Alexander Schmalcz (Piano) - Schubert, Nacht und Träume (2011) [FLAC (level 8)]/07 Totengräbers Heimweh D.842.flac
    /Volumes/My Disk/XLD converted FLAC/Matthias Goerne (Bariton), Alexander Schmalcz (Piano) - Schubert, Nacht und Träume (2011) [LAME MP3 (VBR-new quality 0.0)]/07 Totengräbers Heimweh D.842.mp3
    Track gain : 1.44 dB
    Peak : 0.988831
    CRC32 hash (test run) : 55F543D1
    CRC32 hash : 55F543D1
    CRC32 hash (skip zero) : 8E27FF4D
    AccurateRip signature : 6FF959DD
    ->Accurately ripped! (AR2, confidence 3)
    Statistics
    Read error : 0
    Jitter error (maybe fixed) : 0
    Retry sector count : 0
    Damaged sector count : 0
    Track 08
    Filename : /Volumes/My Disk/XLD converted FLAC/Matthias Goerne (Bariton), Alexander Schmalcz (Piano) - Schubert, Nacht und Träume (2011) [LAME MP3 (CBR 320kbps)]/08 An den Mond D.193.mp3
    /Volumes/My Disk/XLD converted FLAC/Matthias Goerne (Bariton), Alexander Schmalcz (Piano) - Schubert, Nacht und Träume (2011) [FLAC (level 8)]/08 An den Mond D.193.flac
    /Volumes/My Disk/XLD converted FLAC/Matthias Goerne (Bariton), Alexander Schmalcz (Piano) - Schubert, Nacht und Träume (2011) [LAME MP3 (VBR-new quality 0.0)]/08 An den Mond D.193.mp3
    Track gain : 9.38 dB
    Peak : 0.327087
    CRC32 hash (test run) : 63D76351
    CRC32 hash : 63D76351
    CRC32 hash (skip zero) : 255FE8D8
    AccurateRip signature : 21D440C5
    ->Accurately ripped! (AR2, confidence 3)
    Statistics
    Read error : 0
    Jitter error (maybe fixed) : 0
    Retry sector count : 0
    Damaged sector count : 0
    Track 09
    Filename : /Volumes/My Disk/XLD converted FLAC/Matthias Goerne (Bariton), Alexander Schmalcz (Piano) - Schubert, Nacht und Träume (2011) [LAME MP3 (CBR 320kbps)]/09 Die Mainacht D.194.mp3
    /Volumes/My Disk/XLD converted FLAC/Matthias Goerne (Bariton), Alexander Schmalcz (Piano) - Schubert, Nacht und Träume (2011) [FLAC (level 8)]/09 Die Mainacht D.194.flac
    /Volumes/My Disk/XLD converted FLAC/Matthias Goerne (Bariton), Alexander Schmalcz (Piano) - Schubert, Nacht und Träume (2011) [LAME MP3 (VBR-new quality 0.0)]/09 Die Mainacht D.194.mp3
    Track gain : 7.46 dB
    Peak : 0.342957
    CRC32 hash (test run) : 4544F10D
    CRC32 hash : 4544F10D
    CRC32 hash (skip zero) : DE92B504
    AccurateRip signature : 873777E4
    ->Accurately ripped! (AR2, confidence 3)
    Statistics
    Read error : 0
    Jitter error (maybe fixed) : 0
    Retry sector count : 0
    Damaged sector count : 0
    Track 10
    Filename : /Volumes/My Disk/XLD converted FLAC/Matthias Goerne (Bariton), Alexander Schmalcz (Piano) - Schubert, Nacht und Träume (2011) [LAME MP3 (CBR 320kbps)]/10 An Silvia D.891.mp3
    /Volumes/My Disk/XLD converted FLAC/Matthias Goerne (Bariton), Alexander Schmalcz (Piano) - Schubert, Nacht und Träume (2011) [FLAC (level 8)]/10 An Silvia D.891.flac
    /Volumes/My Disk/XLD converted FLAC/Matthias Goerne (Bariton), Alexander Schmalcz (Piano) - Schubert, Nacht und Träume (2011) [LAME MP3 (VBR-new quality 0.0)]/10 An Silvia D.891.mp3
    Track gain : 5.47 dB
    Peak : 0.434601
    CRC32 hash (test run) : 66EA480F
    CRC32 hash : 66EA480F
    CRC32 hash (skip zero) : 24D05AF6
    AccurateRip signature : 44254B2E
    ->Accurately ripped! (AR2, confidence 3)
    Statistics
    Read error : 0
    Jitter error (maybe fixed) : 0
    Retry sector count : 0
    Damaged sector count : 0
    Track 11
    Filename : /Volumes/My Disk/XLD converted FLAC/Matthias Goerne (Bariton), Alexander Schmalcz (Piano) - Schubert, Nacht und Träume (2011) [LAME MP3 (CBR 320kbps)]/11 Ständchen D.889.mp3
    /Volumes/My Disk/XLD converted FLAC/Matthias Goerne (Bariton), Alexander Schmalcz (Piano) - Schubert, Nacht und Träume (2011) [FLAC (level 8)]/11 Ständchen D.889.flac
    /Volumes/My Disk/XLD converted FLAC/Matthias Goerne (Bariton), Alexander Schmalcz (Piano) - Schubert, Nacht und Träume (2011) [LAME MP3 (VBR-new quality 0.0)]/11 Ständchen D.889.mp3
    Track gain : 2.92 dB
    Peak : 0.628632
    CRC32 hash (test run) : 21F58963
    CRC32 hash : 21F58963
    CRC32 hash (skip zero) : 89D79780
    AccurateRip signature : 62489E19
    ->Accurately ripped! (AR2, confidence 3)
    Statistics
    Read error : 0
    Jitter error (maybe fixed) : 0
    Retry sector count : 0
    Damaged sector count : 0
    Track 12
    Filename : /Volumes/My Disk/XLD converted FLAC/Matthias Goerne (Bariton), Alexander Schmalcz (Piano) - Schubert, Nacht und Träume (2011) [LAME MP3 (CBR 320kbps)]/12 Der Schäfer und der Reiter D.517.mp3
    /Volumes/My Disk/XLD converted FLAC/Matthias Goerne (Bariton), Alexander Schmalcz (Piano) - Schubert, Nacht und Träume (2011) [FLAC (level 8)]/12 Der Schäfer und der Reiter D.517.flac
    /Volumes/My Disk/XLD converted FLAC/Matthias Goerne (Bariton), Alexander Schmalcz (Piano) - Schubert, Nacht und Träume (2011) [LAME MP3 (VBR-new quality 0.0)]/12 Der Schäfer und der Reiter D.517.mp3
    Track gain : 1.18 dB
    Peak : 0.897064
    CRC32 hash (test run) : ED1B4180
    CRC32 hash : ED1B4180
    CRC32 hash (skip zero) : D8C2A54A
    AccurateRip signature : 6E9C0062
    ->Accurately ripped! (AR2, confidence 3)
    Statistics
    Read error : 0
    Jitter error (maybe fixed) : 0
    Retry sector count : 0
    Damaged sector count : 0
    Track 13
    Filename : /Volumes/My Disk/XLD converted FLAC/Matthias Goerne (Bariton), Alexander Schmalcz (Piano) - Schubert, Nacht und Träume (2011) [LAME MP3 (CBR 320kbps)]/13 Die Sommernacht D.289.mp3
    /Volumes/My Disk/XLD converted FLAC/Matthias Goerne (Bariton), Alexander Schmalcz (Piano) - Schubert, Nacht und Träume (2011) [FLAC (level 8)]/13 Die Sommernacht D.289.flac
    /Volumes/My Disk/XLD converted FLAC/Matthias Goerne (Bariton), Alexander Schmalcz (Piano) - Schubert, Nacht und Träume (2011) [LAME MP3 (VBR-new quality 0.0)]/13 Die Sommernacht D.289.mp3
    Track gain : 9.20 dB
    Peak : 0.293884
    CRC32 hash (test run) : 33E2DF0F
    CRC32 hash : 33E2DF0F
    CRC32 hash (skip zero) : 9BEF0AC0
    AccurateRip signature : 824E6BBA
    ->Accurately ripped! (AR2, confidence 3)
    Statistics
    Read error : 0
    Jitter error (maybe fixed) : 0
    Retry sector count : 0
    Damaged sector count : 0
    Track 14
    Filename : /Volumes/My Disk/XLD converted FLAC/Matthias Goerne (Bariton), Alexander Schmalcz (Piano) - Schubert, Nacht und Träume (2011) [LAME MP3 (CBR 320kbps)]/14 Erntelied D.434.mp3
    /Volumes/My Disk/XLD converted FLAC/Matthias Goerne (Bariton), Alexander Schmalcz (Piano) - Schubert, Nacht und Träume (2011) [FLAC (level 8)]/14 Erntelied D.434.flac
    /Volumes/My Disk/XLD converted FLAC/Matthias Goerne (Bariton), Alexander Schmalcz (Piano) - Schubert, Nacht und Träume (2011) [LAME MP3 (VBR-new quality 0.0)]/14 Erntelied D.434.mp3
    Track gain : 1.67 dB
    Peak : 0.626556
    CRC32 hash (test run) : 5FCE9A97
    CRC32 hash : 5FCE9A97
    CRC32 hash (skip zero) : CF8DA61A
    AccurateRip signature : B950C456
    ->Accurately ripped! (AR2, confidence 3)
    Statistics
    Read error : 0
    Jitter error (maybe fixed) : 0
    Retry sector count : 0
    Damaged sector count : 0
    Track 15
    Filename : /Volumes/My Disk/XLD converted FLAC/Matthias Goerne (Bariton), Alexander Schmalcz (Piano) - Schubert, Nacht und Träume (2011) [LAME MP3 (CBR 320kbps)]/15 Herbstlied D.502.mp3
    /Volumes/My Disk/XLD converted FLAC/Matthias Goerne (Bariton), Alexander Schmalcz (Piano) - Schubert, Nacht und Träume (2011) [FLAC (level 8)]/15 Herbstlied D.502.flac
    /Volumes/My Disk/XLD converted FLAC/Matthias Goerne (Bariton), Alexander Schmalcz (Piano) - Schubert, Nacht und Träume (2011) [LAME MP3 (VBR-new quality 0.0)]/15 Herbstlied D.502.mp3
    Track gain : 7.96 dB
    Peak : 0.285187
    CRC32 hash (test run) : 795AB26C
    CRC32 hash : 795AB26C
    CRC32 hash (skip zero) : C63EE35E
    AccurateRip signature : D19F3F89
    ->Accurately ripped! (AR2, confidence 3)
    Statistics
    Read error : 0
    Jitter error (maybe fixed) : 0
    Retry sector count : 0
    Damaged sector count : 0
    Track 16
    Filename : /Volumes/My Disk/XLD converted FLAC/Matthias Goerne (Bariton), Alexander Schmalcz (Piano) - Schubert, Nacht und Träume (2011) [LAME MP3 (CBR 320kbps)]/16 Der liebliche Stern D.861.mp3
    /Volumes/My Disk/XLD converted FLAC/Matthias Goerne (Bariton), Alexander Schmalcz (Piano) - Schubert, Nacht und Träume (2011) [FLAC (level 8)]/16 Der liebliche Stern D.861.flac
    /Volumes/My Disk/XLD converted FLAC/Matthias Goerne (Bariton), Alexander Schmalcz (Piano) - Schubert, Nacht und Träume (2011) [LAME MP3 (VBR-new quality 0.0)]/16 Der liebliche Stern D.861.mp3
    Track gain : 4.89 dB
    Peak : 0.752533
    CRC32 hash (test run) : 1A2E032E
    CRC32 hash : 1A2E032E
    CRC32 hash (skip zero) : 7692DAB2
    AccurateRip signature : 71FE959D
    ->Accurately ripped! (AR2, confidence 3)
    Statistics
    Read error : 0
    Jitter error (maybe fixed) : 0
    Retry sector count : 0
    Damaged sector count : 0
    Track 17
    Filename : /Volumes/My Disk/XLD converted FLAC/Matthias Goerne (Bariton), Alexander Schmalcz (Piano) - Schubert, Nacht und Träume (2011) [LAME MP3 (CBR 320kbps)]/17 An die Geliebte D.303.mp3
    /Volumes/My Disk/XLD converted FLAC/Matthias Goerne (Bariton), Alexander Schmalcz (Piano) - Schubert, Nacht und Träume (2011) [FLAC (level 8)]/17 An die Geliebte D.303.flac
    /Volumes/My Disk/XLD converted FLAC/Matthias Goerne (Bariton), Alexander Schmalcz (Piano) - Schubert, Nacht und Träume (2011) [LAME MP3 (VBR-new quality 0.0)]/17 An die Geliebte D.303.mp3
    Track gain : 7.80 dB
    Peak : 0.290771
    CRC32 hash (test run) : 5C08CDFF
    CRC32 hash : 5C08CDFF
    CRC32 hash (skip zero) : 7E88C6FE
    AccurateRip signature : 4649DA92
    ->Accurately ripped! (AR2, confidence 3)
    Statistics
    Read error : 0
    Jitter error (maybe fixed) : 0
    Retry sector count : 0
    Damaged sector count : 0
    No errors occurred
    End of status report

    auCDtect Task Manager log / Отчёт auCDtect Task Manager

    -----------------------
    DON'T MODIFY THIS FILE
    -----------------------
    PERFORMER: auCDtect Task Manager, ver. 1.5.1RC3 build 1.5.1.4
    Copyright (c) 2008-2010 y-soft. All rights reserved
    ANALYZER: auCDtect: CD records authenticity detector, version 0.8.2
    Copyright (c) 2004 Oleg Berngardt. All rights reserved.
    Copyright (c) 2004 Alexander Djourik. All rights reserved.
    FILE: 05 - Im Jaenner 1817 (Tiefes Leid) (Schulze), D. 876.flac
    Size: 13684480 Hash: 697E06B5D78E97EDDA393F43C255D792 Accuracy: -m0
    Conclusion: CDDA 86%
    Signature: 441A08289C25FB1BAB3FD131011EE303F88DD9BB
    FILE: 04 - Totengraeberweise (Schlechta), D. 869.flac
    Size: 17605532 Hash: 546D929EC146D1E448A3C64B9413D92B Accuracy: -m0
    Conclusion: CDDA 42%
    Signature: 835F4DC5EAE0F938B91B6722CBD73C26FC5F2F97
    FILE: 03 - Hoffnung (Schiller), D. 637.flac
    Size: 13591401 Hash: D7DFDDBED1B0E894986A3A1C8D69A697 Accuracy: -m0
    Conclusion: CDDA 87%
    Signature: F74540DD32BF8CC88019C4D20729EE6E7A2990E3
    FILE: 02 - Der blinde Knabe (Cibber - Craghier), D. 833.flac
    Size: 12817869 Hash: F3974909D8760625F06D3F3E9BF69D74 Accuracy: -m0
    Conclusion: CDDA 100%
    Signature: 62DDCC063A4D4BA6B8E906F734680C5E0DF3C25A
    FILE: 01 - Nacht und Traeume (Collin), D. 827.flac
    Size: 14341162 Hash: 6D0A17887E32B0A17284203B97A72386 Accuracy: -m0
    Conclusion: CDDA 76%
    Signature: 1CD7E78E87066D854F08E8194B7445C18F2A0A04
    FILE: 17 - An die Geliebte (Stoll), D. 303.flac
    Size: 7570247 Hash: 787998F1A3B8471383BA87381F9FFDF4 Accuracy: -m0
    Conclusion: CDDA 58%
    Signature: D45BD791032518269BAEB0F5D57EB2FBBAD52023
    FILE: 16 - Der liebliche Stern (Schulze), D. 861.flac
    Size: 12042129 Hash: 936C60A772C5EA30C03B0B961F49DEF3 Accuracy: -m0
    Conclusion: CDDA 100%
    Signature: 0BF69E71F018719221254184BEBFDA78FEFB26BB
    FILE: 15 - Herbstlied (Salis-Seewis), D. 502.flac
    Size: 5566021 Hash: 509AF9B19ACEB85FD556E1109FAA33BF Accuracy: -m0
    Conclusion: CDDA 100%
    Signature: AADCB9862B4A93777D98E5640EE8CFB9B594E3A4
    FILE: 14 - Erntelied (Hoelty), D. 434.flac
    Size: 8154276 Hash: 47817DF24CD7AE05A5AF88FFC9FA6C48 Accuracy: -m0
    Conclusion: CDDA 100%
    Signature: F34C0D5EDFB2CE95929455A2BAF56820FFAD9870
    FILE: 13 - Die Sommernacht (Klopstock), D. 289.flac
    Size: 11100164 Hash: 6082FFF8A16BE5503771088589323F96 Accuracy: -m0
    Conclusion: CDDA 62%
    Signature: 5C1BDC3349DE60E2263685383FF1F7E74EF8D8D3
    FILE: 12 - Der Schaefer und der Reiter (de la Motte Fouque), D. 517.flac
    Size: 13740759 Hash: 195B627BA5937892A36438887E7AEC66 Accuracy: -m0
    Conclusion: CDDA 85%
    Signature: 93C217A44FEB02867C16BC7076D1A93CF39E8ED2
    FILE: 11 - Staendchen (Horch, horch! die Lerch) (Shakespere - Schlegel), D. 889.flac
    Size: 19965019 Hash: 0D87F57F90A845BD4441849EC13187C6 Accuracy: -m0
    Conclusion: CDDA 85%
    Signature: 86250AFF3F971FD161335101A196FCC3D3952D59
    FILE: 10 - An Sylvia (Shakespere - Bauernfeld), D. 891.flac
    Size: 12077609 Hash: 1A367F4CECDF78C3756B0BE8A42C6463 Accuracy: -m0
    Conclusion: CDDA 85%
    Signature: C0E9B523761EB4112EAC1740262451DD5BFAB54F
    FILE: 09 - Die Mainacht (Hoelty), D. 194.flac
    Size: 7060138 Hash: 5FF710BEBF5A24BABC5F0C074DE4B040 Accuracy: -m0
    Conclusion: CDDA 100%
    Signature: 0DBEA8A2FE57315800776A66E32AB320F4481B42
    FILE: 08 - An den Mond (Hoelty), D. 193.flac
    Size: 12146146 Hash: 498EF5F804D419271077D311E410047A Accuracy: -m0
    Conclusion: CDDA 87%
    Signature: 00733E1ABB8117FF5348ED36AFA0F8929EE89C3B
    FILE: 07 - Totengraebers Heimweh (Craghier), D. 842.flac
    Size: 25340053 Hash: 1DDFB45F3BD176CA7CE12E5B23182AA2 Accuracy: -m0
    Conclusion: CDDA 49%
    Signature: AD1BA535CB86B1482638A049D35FFE05368032C0
    FILE: 06 - Greisengesang (Rueckert), D. 778.flac
    Size: 21345607 Hash: DD4268A8E7845D02FF4DA9EAB3143F01 Accuracy: -m0
    Conclusion: CDDA 87%
    Signature: DD72640735AE5BC4231F8AC79CD89489DEB90A5C

    CUETools log / Отчёт CUETools

    [CUETools log; Date: 10.11.2013 21:02:28; Version: 2.1.4]
    [AccurateRip ID: 00295bfb-0204d29a-d20e3611] found.
    Track [ CRC | V2 ] Status
    01 [f0e1aada|858de8b6] (07+07/14) Accurately ripped
    02 [39e3e983|b294515a] (08+07/15) Accurately ripped
    03 [8cdcab3e|db63adad] (08+07/15) Accurately ripped
    04 [f01e1c69|b540cc79] (08+07/15) Accurately ripped
    05 [af5985d7|4343c4d6] (08+07/15) Accurately ripped
    06 [fd9e23d5|703732ed] (08+07/15) Accurately ripped
    07 [dd4b46e2|6ff959dd] (08+07/15) Accurately ripped
    08 [799085fc|21d440c5] (08+07/15) Accurately ripped
    09 [62299e29|873777e4] (08+07/15) Accurately ripped
    10 [ddb75d12|44254b2e] (08+07/15) Accurately ripped
    11 [d5ef3d7e|62489e19] (08+07/15) Accurately ripped
    12 [f8d4cc81|6e9c0062] (08+07/15) Accurately ripped
    13 [bd7be6ac|824e6bba] (08+07/15) Accurately ripped
    14 [50cb1615|b950c456] (08+07/15) Accurately ripped
    15 [30c76f03|d19f3f89] (08+07/15) Accurately ripped
    16 [934890e6|71fe959d] (08+07/15) Accurately ripped
    17 [ba0926bc|4649da92] (08+07/15) Accurately ripped
    Track Peak [ CRC32 ] [W/O NULL]
    -- 98,8 [FA9DEEB1] [0B7E3125]
    01 36,2 [5B4ABCE6] [F78E0019]
    02 35,7 [558AF0DD] [5DE6AE26]
    03 42,7 [73A7C17C] [B4010D40]
    04 98,8 [5AC5370A] [BAEFDD57]
    05 77,9 [0F0306BC] [942B1ED5]
    06 51,1 [B1DCC1DA] [DD76AB49]
    07 98,8 [55F543D1] [8E27FF4D]
    08 32,7 [63D76351] [255FE8D8]
    09 34,2 [4544F10D] [DE92B504]
    10 43,4 [66EA480F] [24D05AF6]
    11 62,8 [21F58963] [89D79780]
    12 89,7 [ED1B4180] [D8C2A54A]
    13 29,3 [33E2DF0F] [9BEF0AC0]
    14 62,6 [5FCE9A97] [CF8DA61A]
    15 28,5 [795AB26C] [C63EE35E]
    16 75,2 [1A2E032E] [7692DAB2]
    17 29,0 [5C08CDFF] [7E88C6FE]

    CUE sheet

    TITLE "Matthias Goerne Schubert Edition. Volume 5"
    PERFORMER "Matthias Goerne"
    REM GENRE Classical
    REM DISCID D20E3611
    REM REPLAYGAIN_ALBUM_GAIN 4.63 dB
    REM REPLAYGAIN_ALBUM_PEAK 0.988831
    FILE "01 - Nacht und Traeume (Collin), D. 827.flac" WAVE
    TRACK 01 AUDIO
    TITLE "Nacht und Träume (Collin), D. 827"
    PERFORMER "Matthias Goerne (baritone), Alexander Schmalcz (piano)"
    REM DATE 2008
    REM REPLAYGAIN_TRACK_GAIN 7.49 dB
    REM REPLAYGAIN_TRACK_PEAK 0.362061
    INDEX 01 00:00:00
    FILE "02 - Der blinde Knabe (Cibber - Craghier), D. 833.flac" WAVE
    TRACK 02 AUDIO
    TITLE "Der blinde Knabe (Cibber / Craghier), D. 833"
    PERFORMER "Matthias Goerne (baritone), Alexander Schmalcz (piano)"
    REM DATE 2008
    REM REPLAYGAIN_TRACK_GAIN 6.74 dB
    REM REPLAYGAIN_TRACK_PEAK 0.357330
    INDEX 01 00:00:00
    FILE "03 - Hoffnung (Schiller), D. 637.flac" WAVE
    TRACK 03 AUDIO
    TITLE "Hoffnung (Schiller), D. 637"
    PERFORMER "Matthias Goerne (baritone), Alexander Schmalcz (piano)"
    REM DATE 2008
    REM REPLAYGAIN_TRACK_GAIN 8.13 dB
    REM REPLAYGAIN_TRACK_PEAK 0.427460
    INDEX 01 00:00:00
    FILE "04 - Totengraeberweise (Schlechta), D. 869.flac" WAVE
    TRACK 04 AUDIO
    TITLE "Totengräberweise (Schlechta), D. 869"
    PERFORMER "Matthias Goerne (baritone), Alexander Schmalcz (piano)"
    REM DATE 2008
    REM REPLAYGAIN_TRACK_GAIN 1.99 dB
    REM REPLAYGAIN_TRACK_PEAK 0.988342
    INDEX 01 00:00:00
    FILE "05 - Im Jaenner 1817 (Tiefes Leid) (Schulze), D. 876.flac" WAVE
    TRACK 05 AUDIO
    TITLE "Im Jänner 1817 (Tiefes Leid) (Schulze), D. 876"
    PERFORMER "Matthias Goerne (baritone), Alexander Schmalcz (piano)"
    REM DATE 2008
    REM REPLAYGAIN_TRACK_GAIN 3.30 dB
    REM REPLAYGAIN_TRACK_PEAK 0.779785
    INDEX 01 00:00:00
    FILE "06 - Greisengesang (Rueckert), D. 778.flac" WAVE
    TRACK 06 AUDIO
    TITLE "Greisengesang (Rückert), D. 778"
    PERFORMER "Matthias Goerne (baritone), Alexander Schmalcz (piano)"
    REM DATE 2008
    REM REPLAYGAIN_TRACK_GAIN 7.32 dB
    REM REPLAYGAIN_TRACK_PEAK 0.511871
    INDEX 01 00:00:00
    FILE "07 - Totengraebers Heimweh (Craghier), D. 842.flac" WAVE
    TRACK 07 AUDIO
    TITLE "Totengräbers Heimweh (Craghier), D. 842"
    PERFORMER "Matthias Goerne (baritone), Alexander Schmalcz (piano)"
    REM DATE 2008
    REM REPLAYGAIN_TRACK_GAIN 1.44 dB
    REM REPLAYGAIN_TRACK_PEAK 0.988831
    INDEX 01 00:00:00
    FILE "08 - An den Mond (Hoelty), D. 193.flac" WAVE
    TRACK 08 AUDIO
    TITLE "An den Mond (Hölty), D. 193"
    PERFORMER "Matthias Goerne (baritone), Alexander Schmalcz (piano)"
    REM DATE 2008
    REM REPLAYGAIN_TRACK_GAIN 9.38 dB
    REM REPLAYGAIN_TRACK_PEAK 0.327087
    INDEX 01 00:00:00
    FILE "09 - Die Mainacht (Hoelty), D. 194.flac" WAVE
    TRACK 09 AUDIO
    TITLE "Die Mainacht (Hölty), D. 194"
    PERFORMER "Matthias Goerne (baritone), Alexander Schmalcz (piano)"
    REM DATE 2008
    REM REPLAYGAIN_TRACK_GAIN 7.46 dB
    REM REPLAYGAIN_TRACK_PEAK 0.342957
    INDEX 01 00:00:00
    FILE "10 - An Sylvia (Shakespeare - Bauernfeld), D. 891.flac" WAVE
    TRACK 10 AUDIO
    TITLE "An Sylvia (Shakespeare / Bauernfeld), D. 891"
    PERFORMER "Matthias Goerne (baritone), Alexander Schmalcz (piano)"
    REM DATE 2008
    REM REPLAYGAIN_TRACK_GAIN 5.47 dB
    REM REPLAYGAIN_TRACK_PEAK 0.434601
    INDEX 01 00:00:00
    FILE "11 - Staendchen (Horch, horch! die Lerch) (Shakespeare - Schlegel), D. 889.flac" WAVE
    TRACK 11 AUDIO
    TITLE "Ständchen (Horch, horch! die Lerch) (Shakespeare / Schlegel), D. 889"
    PERFORMER "Matthias Goerne (baritone), Alexander Schmalcz (piano)"
    REM DATE 2008
    REM REPLAYGAIN_TRACK_GAIN 2.92 dB
    REM REPLAYGAIN_TRACK_PEAK 0.628632
    INDEX 01 00:00:00
    FILE "12 - Der Schaefer und der Reiter (de la Motte Fouque), D. 517.flac" WAVE
    TRACK 12 AUDIO
    TITLE "Der Schäfer und der Reiter (de la Motte Fouqué), D. 517"
    PERFORMER "Matthias Goerne (baritone), Alexander Schmalcz (piano)"
    REM DATE 2008
    REM REPLAYGAIN_TRACK_GAIN 1.18 dB
    REM REPLAYGAIN_TRACK_PEAK 0.897064
    INDEX 01 00:00:00
    FILE "13 - Die Sommernacht (Klopstock), D. 289.flac" WAVE
    TRACK 13 AUDIO
    TITLE "Die Sommernacht (Klopstock), D. 289"
    PERFORMER "Matthias Goerne (baritone), Alexander Schmalcz (piano)"
    REM DATE 2008
    REM REPLAYGAIN_TRACK_GAIN 9.20 dB
    REM REPLAYGAIN_TRACK_PEAK 0.293884
    INDEX 01 00:00:00
    FILE "14 - Erntelied (Hoelty), D. 434.flac" WAVE
    TRACK 14 AUDIO
    TITLE "Erntelied (Hölty), D. 434"
    PERFORMER "Matthias Goerne (baritone), Alexander Schmalcz (piano)"
    REM DATE 2008
    REM REPLAYGAIN_TRACK_GAIN 1.67 dB
    REM REPLAYGAIN_TRACK_PEAK 0.626556
    INDEX 01 00:00:00
    FILE "15 - Herbstlied (Salis-Seewis), D. 502.flac" WAVE
    TRACK 15 AUDIO
    TITLE "Herbstlied (Salis-Seewis), D. 502"
    PERFORMER "Matthias Goerne (baritone), Alexander Schmalcz (piano)"
    REM DATE 2008
    REM REPLAYGAIN_TRACK_GAIN 7.96 dB
    REM REPLAYGAIN_TRACK_PEAK 0.285187
    INDEX 01 00:00:00
    FILE "16 - Der liebliche Stern (Schulze), D. 861.flac" WAVE
    TRACK 16 AUDIO
    TITLE "Der liebliche Stern (Schulze), D. 861"
    PERFORMER "Matthias Goerne (baritone), Alexander Schmalcz (piano)"
    REM DATE 2008
    REM REPLAYGAIN_TRACK_GAIN 4.89 dB
    REM REPLAYGAIN_TRACK_PEAK 0.752533
    INDEX 01 00:00:00
    FILE "17 - An die Geliebte (Stoll), D. 303.flac" WAVE
    TRACK 17 AUDIO
    TITLE "An die Geliebte (Stoll), D. 303"
    PERFORMER "Matthias Goerne (baritone), Alexander Schmalcz (piano)"
    REM DATE 2008
    REM REPLAYGAIN_TRACK_GAIN 7.80 dB
    REM REPLAYGAIN_TRACK_PEAK 0.290771
    INDEX 01 00:00:00
    -
    Matthias Goerne Schubert Edition — все раздачиFranz Schubert — каталог раздач на rutracker.orgВсе мои раздачи / All my releases



  • Показать сообщения:    

    Текущее время: 06-Дек 11:09

    Часовой пояс: UTC + 3


    Вы не можете начинать темы
    Вы не можете отвечать на сообщения
    Вы не можете редактировать свои сообщения
    Вы не можете удалять свои сообщения
    Вы не можете голосовать в опросах
    Вы не можете прикреплять файлы к сообщениям
    Вы не можете скачивать файлы