(Classical / Vocal) Franz Schubert - Lieder / Songs / Франц Шуберт - Песни (Christa Ludwig, Irwin Gage, 1973/1974) - 1991 [2 CD], FLAC (image+.cue) lossless


 

[Цитировать]

Franz Schubert | Франц Шуберт
(1797–1828)



Lieder | Songs | Песни


Christa Ludwig mezzo-sopranoIrwin Gage piano


Жанр: Classical / Vocal
Даты и место записи: Wien, Tonstudio Rosenhügel, June 1973, June & July 1974
Формат записи: ADD, Stereo
Год издания диска: 1991
Издатель (лейбл): Deutsche Grammophon
Номер по каталогу: 431 476-2
Аудиокодек: FLAC
Тип рипа: image+.cue
Битрейт аудио: lossless
Продолжительность: 1:36:30
Наличие сканов в содержимом раздачи: да (буклет не полностью)
Источник: блог OdeonMusic

-Tracklist / ТреклистCD 1
Gretchen am Spinnrade (Goethe), D. 118 - 3:28
  • Der Tod und das Mädchen (Claudius), D. 531 - 2:24
  • Lachen und Weinen (Rückert), D. 777 - 1:52
  • Die junge Nonne (Craghier), D. 828 - 4:49
  • Der König in Thule (Goethe), D. 367 - 3:09
  • Lied der Mignon «Nun wer die Sehnsucht kennt» (Goethe), D. 877 Nr. 4 - 3:04
  • Frühlingsglaube (Uhland), D. 686b - 2:59
  • Am Bach im Frühling (Schober), D. 361 - 3:52
  • Die Rose (Schlegel), D. 745 - 2:49
  • Auf der Donau (Mayrhofer), D. 553 - 2:49
  • Des Mädchens Klage (Schiller), D. 191b - 2:37
  • Im Abendrot (Lappe), D. 799 - 3:33
  • Romanze «Der Vollmond strahlt auf Bergeshöhn» (Chézy), D. 797 Nr. 3b - 2:48
  • An die Nachtigall (Claudius), D. 497 - 1:20
  • Ellens Gesang III («Ave Maria») (Scott / Storck), D. 839 - 6:06
    Recorded: Wien, Tonstudio Rosenhügel, June 1973
    CD 2
    Wehmut (Collin), D. 772 - 2:39
  • Mignon's Gesang «Kennst du das Land?» (Goethe), D. 321 - 4:27
  • Sehnsucht (Schiller), D. 636b - 4:34
  • Daß sie hier gewesen! (Rückert), D. 775 - 2:31
  • Lied der Mignon «Heiss mich nicht reden» (Goethe), D. 877 Nr. 2 - 3:03
  • Lied der Mignon «So lasst mich scheinen» (Goethe), D. 877 Nr. 3 - 3:14
  • Ständchen («Zögernd leise») (Grillparzer), D. 921 - 5:29
  • Der Zwerg (Collin), D. 771 - 5:45
  • Bertas Lied in der Nacht (Grillparzer), D. 653 - 3:56
  • Lilla an die Morgenröte (anonymous), D. 273 - 1:04
  • Die Liebe (Freudvoll und leidvoll) (Klärchens Lied) (Goethe), D. 210 - 1:26
  • Das Mädchen (Schlegel), D. 652 - 2:06
  • An den Mond (Goethe), D. 296 - 4:50
  • Lied der Anne Lyle (MacDonald / S. May?), D. 830 - 3:48
    Frauenchor des Österreichischer Rundfunkchor [7]
    Recorded: Wien, Tonstudio Rosenhügel, June & July 1974
    -

    EAC logs / Отчёты EACCD 1

    Exact Audio Copy V1.0 beta 3 from 29. August 2011
    EAC extraction logfile from 4. March 2013, 9:29
    Christa Ludwig & Irwin Gage / Schubert - Lieder - Christa Ludwig (Disc 1)
    Used drive : TSSTcorpCDDVDW SH-222BB Adapter: 2 ID: 1
    Read mode : Secure
    Utilize accurate stream : Yes
    Defeat audio cache : Yes
    Make use of C2 pointers : No
    Read offset correction : 6
    Overread into Lead-In and Lead-Out : No
    Fill up missing offset samples with silence : Yes
    Delete leading and trailing silent blocks : No
    Null samples used in CRC calculations : Yes
    Used interface : Native Win32 interface for Win NT & 2000
    Used output format : User Defined Encoder
    Selected bitrate : 1024 kBit/s
    Quality : High
    Add ID3 tag : No
    Command line compressor : C:\Program Files\Exact Audio Copy\Flac\flac.exe
    Additional command line options : -8 -V -T "TITLE=%title%" -T "ARTIST=%artist%" -T "ALBUMARTIST=%albumartist%" -T "ALBUM=%albumtitle%" -T "DATE=%year%" -T "TRACKNUMBER=%tracknr%" -T "TRACKTOTAL=%numtracks%" -T "GENRE=%genre%" -T "COMMENT=%comment%" -T "PERFORMER=%albuminterpret%" -T "COMPOSER=%composer%" %source% -o %dest%
    TOC of the extracted CD
    Track | Start | Length | Start sector | End sector
    ---------------------------------------------------------
    1 | 0:00.33 | 3:27.57 | 33 | 15614
    2 | 3:28.15 | 2:23.73 | 15615 | 26412
    3 | 5:52.13 | 1:51.42 | 26413 | 34779
    4 | 7:43.55 | 4:48.45 | 34780 | 56424
    5 | 12:32.25 | 3:09.33 | 56425 | 70632
    6 | 15:41.58 | 3:03.52 | 70633 | 84409
    7 | 18:45.35 | 2:59.18 | 84410 | 97852
    8 | 21:44.53 | 3:51.47 | 97853 | 115224
    9 | 25:36.25 | 2:48.73 | 115225 | 127897
    10 | 28:25.23 | 2:48.72 | 127898 | 140569
    11 | 31:14.20 | 2:37.05 | 140570 | 152349
    12 | 33:51.25 | 3:32.68 | 152350 | 168317
    13 | 37:24.18 | 2:48.30 | 168318 | 180947
    14 | 40:12.48 | 1:19.72 | 180948 | 186944
    15 | 41:32.45 | 6:06.08 | 186945 | 214402
    Range status and errors
    Selected range
    Filename G:\Ripped general\[2701] Schubert – Lieder – Christa Ludwig\cd1\Schubert - Lieder - Christa Ludwig (Disc 1).wav
    Peak level 99.6 %
    Extraction speed 2.3 X
    Range quality 100.0 %
    Test CRC 4350DBB1
    Copy CRC 4350DBB1
    Copy OK
    No errors occurred
    AccurateRip summary
    Track 1 accurately ripped (confidence 4) [AF216DD3] (AR v2)
    Track 2 accurately ripped (confidence 4) [E3EBB410] (AR v2)
    Track 3 accurately ripped (confidence 4) [D843D492] (AR v2)
    Track 4 accurately ripped (confidence 3) [8B507528] (AR v2)
    Track 5 accurately ripped (confidence 3) [5F33C591] (AR v2)
    Track 6 accurately ripped (confidence 3) [D1B14E24] (AR v2)
    Track 7 accurately ripped (confidence 3) [04FACF3C] (AR v2)
    Track 8 accurately ripped (confidence 3) [553F998F] (AR v2)
    Track 9 accurately ripped (confidence 4) [1867E2F6] (AR v2)
    Track 10 accurately ripped (confidence 4) [1700256F] (AR v2)
    Track 11 accurately ripped (confidence 3) [4DD77370] (AR v2)
    Track 12 accurately ripped (confidence 3) [6EFF2658] (AR v2)
    Track 13 accurately ripped (confidence 3) [C9F44031] (AR v2)
    Track 14 accurately ripped (confidence 4) [72ADC1CD] (AR v2)
    Track 15 accurately ripped (confidence 3) [F81A08FF] (AR v2)
    All tracks accurately ripped
    End of status report

    CD 2

    Exact Audio Copy V1.0 beta 3 from 29. August 2011
    EAC extraction logfile from 4. March 2013, 10:18
    Christa Ludwig & Irwin Gage / Schubert - Lieder - Christa Ludwig (Disc 2)
    Used drive : TSSTcorpCDDVDW SH-222BB Adapter: 2 ID: 1
    Read mode : Secure
    Utilize accurate stream : Yes
    Defeat audio cache : Yes
    Make use of C2 pointers : No
    Read offset correction : 6
    Overread into Lead-In and Lead-Out : No
    Fill up missing offset samples with silence : Yes
    Delete leading and trailing silent blocks : No
    Null samples used in CRC calculations : Yes
    Used interface : Native Win32 interface for Win NT & 2000
    Used output format : User Defined Encoder
    Selected bitrate : 1024 kBit/s
    Quality : High
    Add ID3 tag : No
    Command line compressor : C:\Program Files\Exact Audio Copy\Flac\flac.exe
    Additional command line options : -8 -V -T "TITLE=%title%" -T "ARTIST=%artist%" -T "ALBUMARTIST=%albumartist%" -T "ALBUM=%albumtitle%" -T "DATE=%year%" -T "TRACKNUMBER=%tracknr%" -T "TRACKTOTAL=%numtracks%" -T "GENRE=%genre%" -T "COMMENT=%comment%" -T "PERFORMER=%albuminterpret%" -T "COMPOSER=%composer%" %source% -o %dest%
    TOC of the extracted CD
    Track | Start | Length | Start sector | End sector
    ---------------------------------------------------------
    1 | 0:00.33 | 2:39.00 | 33 | 11957
    2 | 2:39.33 | 4:26.50 | 11958 | 31957
    3 | 7:06.08 | 4:33.50 | 31958 | 52482
    4 | 11:39.58 | 2:31.25 | 52483 | 63832
    5 | 14:11.08 | 3:03.00 | 63833 | 77557
    6 | 17:14.08 | 3:14.00 | 77558 | 92107
    7 | 20:28.08 | 5:28.50 | 92108 | 116757
    8 | 25:56.58 | 5:45.00 | 116758 | 142632
    9 | 31:41.58 | 3:56.00 | 142633 | 160332
    10 | 35:37.58 | 1:04.00 | 160333 | 165132
    11 | 36:41.58 | 1:26.25 | 165133 | 171607
    12 | 38:08.08 | 2:06.00 | 171608 | 181057
    13 | 40:14.08 | 4:50.00 | 181058 | 202807
    14 | 45:04.08 | 3:48.25 | 202808 | 219932
    Range status and errors
    Selected range
    Filename G:\Ripped general\[2701] Schubert – Lieder – Christa Ludwig\cd2\Schubert - Lieder - Christa Ludwig (Disc 2).wav
    Peak level 99.6 %
    Extraction speed 2.3 X
    Range quality 100.0 %
    Test CRC E11F6868
    Copy CRC E11F6868
    Copy OK
    No errors occurred
    AccurateRip summary
    Track 1 accurately ripped (confidence 4) [4CEAD857] (AR v2)
    Track 2 accurately ripped (confidence 4) [F53F322E] (AR v2)
    Track 3 accurately ripped (confidence 4) [A9DC86BD] (AR v2)
    Track 4 accurately ripped (confidence 4) [5DAE374D] (AR v2)
    Track 5 accurately ripped (confidence 4) [6592065B] (AR v2)
    Track 6 accurately ripped (confidence 4) [7BAF214D] (AR v2)
    Track 7 accurately ripped (confidence 4) [6A79EEC9] (AR v2)
    Track 8 accurately ripped (confidence 4) [E20935FA] (AR v2)
    Track 9 accurately ripped (confidence 4) [8CE1D15E] (AR v2)
    Track 10 accurately ripped (confidence 4) [BE921456] (AR v2)
    Track 11 accurately ripped (confidence 4) [CEDACE7C] (AR v2)
    Track 12 accurately ripped (confidence 4) [595C33CF] (AR v2)
    Track 13 accurately ripped (confidence 4) [21062862] (AR v2)
    Track 14 accurately ripped (confidence 4) [89AAD5F4] (AR v2)
    All tracks accurately ripped
    End of status report

    auCDtect Task Manager logs / Отчёты auCDtect Task ManagerCD 1

    -----------------------
    DON'T MODIFY THIS FILE
    -----------------------
    PERFORMER: auCDtect Task Manager, ver. 1.5.1RC3 build 1.5.1.4
    Copyright (c) 2008-2010 y-soft. All rights reserved
    ANALYZER: auCDtect: CD records authenticity detector, version 0.8.2
    Copyright (c) 2004 Oleg Berngardt. All rights reserved.
    Copyright (c) 2004 Alexander Djourik. All rights reserved.
    FILE: Schubert. Lieder (Christa Ludwig, Irwin Gage) - CD 1.flac
    Size: 190865467 Hash: 6A382CDF8992C74DF91ED393099B7D0D Accuracy: -m0
    Conclusion: CDDA 100%
    Signature: 826D3259E019F83D296F1436DA823BD760D38D1F

    CD 2

    -----------------------
    DON'T MODIFY THIS FILE
    -----------------------
    PERFORMER: auCDtect Task Manager, ver. 1.5.1RC3 build 1.5.1.4
    Copyright (c) 2008-2010 y-soft. All rights reserved
    ANALYZER: auCDtect: CD records authenticity detector, version 0.8.2
    Copyright (c) 2004 Oleg Berngardt. All rights reserved.
    Copyright (c) 2004 Alexander Djourik. All rights reserved.
    FILE: Schubert. Lieder (Christa Ludwig, Irwin Gage) - CD 2.flac
    Size: 183490311 Hash: FA4E16004F8A92957CDC6E634D68BB5F Accuracy: -m0
    Conclusion: CDDA 100%
    Signature: 4BCE7808744645079D50CFCB5A7015D1B4B400E4

    CUETools logs / Отчёты CUEToolsCD 1

    [CUETools log; Date: 11.11.2013 03:53:50; Version: 2.1.4]
    Pregap length 00:00:33.
    [AccurateRip ID: 00198673-01218bff-bf0b2a0f] found.
    Track [ CRC | V2 ] Status
    01 [f7596d78|af216dd3] (09+10/19) Accurately ripped
    02 [dbb22892|e3ebb410] (09+10/19) Accurately ripped
    03 [b82c2c80|d843d492] (09+10/19) Accurately ripped
    04 [66984373|8b507528] (09+09/18) Accurately ripped
    05 [073431e1|5f33c591] (09+09/18) Accurately ripped
    06 [7587251b|d1b14e24] (09+09/18) Accurately ripped
    07 [72739207|04facf3c] (09+09/18) Accurately ripped
    08 [06a811ca|553f998f] (09+09/18) Accurately ripped
    09 [e5b8d1a5|1867e2f6] (09+10/19) Accurately ripped
    10 [d69b47fd|1700256f] (09+09/18) Accurately ripped
    11 [0229660d|4dd77370] (09+09/18) Accurately ripped
    12 [cfcec461|6eff2658] (09+09/18) Accurately ripped
    13 [e4be093e|c9f44031] (09+09/18) Accurately ripped
    14 [2b1d892d|72adc1cd] (09+10/19) Accurately ripped
    15 [b720bae9|f81a08ff] (09+09/18) Accurately ripped
    Track Peak [ CRC32 ] [W/O NULL] [ LOG ]
    -- 99,6 [4350DBB1] [D4C65E74] CRC32
    01 98,2 [5199BB94] [BAACA59B]
    02 85,6 [EB7CD1A5] [B17EC9D0]
    03 86,2 [8DF9C1B9] [F921121C]
    04 92,5 [60B9BEBD] [05A1A1FE]
    05 79,4 [F0DD4AEB] [4FAB0C5E]
    06 99,6 [8B50CA58] [105343E8]
    07 65,0 [9B7CDBA2] [E5A88820]
    08 65,0 [86290D63] [DB43DE02]
    09 75,7 [0D52EF2F] [8D649FFC]
    10 79,4 [BA8656F4] [AFBC76BC]
    11 92,9 [F22A96DA] [8E7EB9E7]
    12 74,5 [DD7AB92C] [CD569581]
    13 62,4 [15391B03] [625FFCE7]
    14 64,5 [74CF7E48] [FF9F8569]
    15 86,1 [3CDFD6FF] [3557D746]

    CD 2

    [CUETools log; Date: 11.11.2013 03:53:59; Version: 2.1.4]
    Pregap length 00:00:33.
    [AccurateRip ID: 0019ca53-0111dd1f-9f0b740e] found.
    Track [ CRC | V2 ] Status
    01 [40ff51be|4cead857] (10+11/21) Accurately ripped
    02 [f80eb883|f53f322e] (10+11/21) Accurately ripped
    03 [b49d3831|a9dc86bd] (10+11/21) Accurately ripped
    04 [0e02d5e6|5dae374d] (10+11/21) Accurately ripped
    05 [10807754|6592065b] (10+11/21) Accurately ripped
    06 [db8bd990|7baf214d] (10+11/21) Accurately ripped
    07 [9eab045f|6a79eec9] (10+11/21) Accurately ripped
    08 [5ed4aad5|e20935fa] (10+11/21) Accurately ripped
    09 [9837e7a0|8ce1d15e] (10+11/21) Accurately ripped
    10 [51d3c785|be921456] (10+11/21) Accurately ripped
    11 [e130a501|cedace7c] (10+11/21) Accurately ripped
    12 [636a5a65|595c33cf] (10+11/21) Accurately ripped
    13 [76e51c6b|21062862] (10+11/21) Accurately ripped
    14 [a97ddeb9|89aad5f4] (09+11/20) Accurately ripped
    Track Peak [ CRC32 ] [W/O NULL] [ LOG ]
    -- 99,6 [E11F6868] [86142799] CRC32
    01 48,7 [09777B92] [6A1A84B4]
    02 99,6 [643E1B1C] [B0219794]
    03 61,5 [36D317D9] [0854539C]
    04 60,2 [D7BCCCE3] [FD95F0D1]
    05 98,2 [BEF3E7F3] [CDB06B78]
    06 87,5 [EED2BBA7] [CECE947B]
    07 77,2 [E077BA78] [571214EA]
    08 75,0 [157F26D3] [A9B50DE2]
    09 80,7 [8082D4BB] [04812FB9]
    10 98,7 [9938C7F3] [8580D313]
    11 72,3 [24008CE3] [547D80FC]
    12 66,6 [3D69C662] [16C5001D]
    13 71,1 [91D3B236] [CE62B7B0]
    14 85,1 [33F5F0BD] [C691207C]

    CUE sheetsCD 1

    TITLE "Franz Schubert: Lieder"
    PERFORMER "Christa Ludwig"
    REM GENRE Classical
    REM DISCID BF0B2A0F
    REM COMMENT "ExactAudioCopy v1.0b3"
    FILE "Schubert. Lieder (Christa Ludwig, Irwin Gage) - CD 1.flac" WAVE
    TRACK 01 AUDIO
    TITLE "Gretchen am Spinnrade (Goethe), D. 118"
    PERFORMER "Christa Ludwig (mezzo-soprano), Irwin Gage (piano)"
    REM DATE 1973
    INDEX 00 00:00:00
    INDEX 01 00:00:33
    TRACK 02 AUDIO
    TITLE "Der Tod und das Mädchen (Claudius), D. 531"
    PERFORMER "Christa Ludwig (mezzo-soprano), Irwin Gage (piano)"
    REM DATE 1973
    INDEX 00 03:25:03
    INDEX 01 03:28:15
    TRACK 03 AUDIO
    TITLE "Lachen und Weinen (Rückert), D. 777"
    PERFORMER "Christa Ludwig (mezzo-soprano), Irwin Gage (piano)"
    REM DATE 1973
    INDEX 00 05:48:58
    INDEX 01 05:52:13
    TRACK 04 AUDIO
    TITLE "Die junge Nonne (Craghier), D. 828"
    PERFORMER "Christa Ludwig (mezzo-soprano), Irwin Gage (piano)"
    REM DATE 1973
    INDEX 00 07:42:13
    INDEX 01 07:43:55
    TRACK 05 AUDIO
    TITLE "Der König in Thule (Goethe), D. 367"
    PERFORMER "Christa Ludwig (mezzo-soprano), Irwin Gage (piano)"
    REM DATE 1973
    INDEX 00 12:29:20
    INDEX 01 12:32:25
    TRACK 06 AUDIO
    TITLE "Lied der Mignon «Nun wer die Sehnsucht kennt» (Goethe), D. 877 Nr. 4"
    PERFORMER "Christa Ludwig (mezzo-soprano), Irwin Gage (piano)"
    REM DATE 1973
    INDEX 00 15:39:08
    INDEX 01 15:41:58
    TRACK 07 AUDIO
    TITLE "Frühlingsglaube (Uhland), D. 686b"
    PERFORMER "Christa Ludwig (mezzo-soprano), Irwin Gage (piano)"
    REM DATE 1973
    INDEX 00 18:42:65
    INDEX 01 18:45:35
    TRACK 08 AUDIO
    TITLE "Am Bach im Frühling (Schober), D. 361"
    PERFORMER "Christa Ludwig (mezzo-soprano), Irwin Gage (piano)"
    REM DATE 1973
    INDEX 00 21:41:43
    INDEX 01 21:44:53
    TRACK 09 AUDIO
    TITLE "Die Rose (Schlegel), D. 745"
    PERFORMER "Christa Ludwig (mezzo-soprano), Irwin Gage (piano)"
    REM DATE 1973
    INDEX 00 25:33:13
    INDEX 01 25:36:25
    TRACK 10 AUDIO
    TITLE "Auf der Donau (Mayrhofer), D. 553"
    PERFORMER "Christa Ludwig (mezzo-soprano), Irwin Gage (piano)"
    REM DATE 1973
    INDEX 00 28:23:50
    INDEX 01 28:25:23
    TRACK 11 AUDIO
    TITLE "Des Mädchens Klage (Schiller), D. 191b"
    PERFORMER "Christa Ludwig (mezzo-soprano), Irwin Gage (piano)"
    REM DATE 1973
    INDEX 00 31:12:05
    INDEX 01 31:14:20
    TRACK 12 AUDIO
    TITLE "Im Abendrot (Lappe), D. 799"
    PERFORMER "Christa Ludwig (mezzo-soprano), Irwin Gage (piano)"
    REM DATE 1973
    INDEX 00 33:48:35
    INDEX 01 33:51:25
    TRACK 13 AUDIO
    TITLE "Romanze «Der Vollmond strahlt auf Bergeshöhn» (Chézy), D. 797 Nr. 3b"
    PERFORMER "Christa Ludwig (mezzo-soprano), Irwin Gage (piano)"
    REM DATE 1973
    INDEX 00 37:22:35
    INDEX 01 37:24:18
    TRACK 14 AUDIO
    TITLE "An die Nachtigall (Claudius), D. 497"
    PERFORMER "Christa Ludwig (mezzo-soprano), Irwin Gage (piano)"
    REM DATE 1973
    INDEX 00 40:09:58
    INDEX 01 40:12:48
    TRACK 15 AUDIO
    TITLE "Ellens Gesang III («Ave Maria») (Scott / Storck), D. 839"
    PERFORMER "Christa Ludwig (mezzo-soprano), Irwin Gage (piano)"
    REM DATE 1973
    INDEX 00 41:29:60
    INDEX 01 41:32:45

    CD 2

    TITLE "Franz Schubert: Lieder"
    PERFORMER "Christa Ludwig"
    REM GENRE Classical
    REM DISCID 9F0B740E
    REM COMMENT "ExactAudioCopy v1.0b3"
    FILE "Schubert. Lieder (Christa Ludwig, Irwin Gage) - CD 2.flac" WAVE
    TRACK 01 AUDIO
    TITLE "Wehmut (Collin), D. 772"
    PERFORMER "Christa Ludwig (mezzo-soprano), Irwin Gage (piano)"
    REM DATE 1974
    INDEX 00 00:00:00
    INDEX 01 00:00:33
    TRACK 02 AUDIO
    TITLE "Mignon's Gesang «Kennst du das Land?» (Goethe), D. 321"
    PERFORMER "Christa Ludwig (mezzo-soprano), Irwin Gage (piano)"
    REM DATE 1974
    INDEX 00 02:35:33
    INDEX 01 02:39:33
    TRACK 03 AUDIO
    TITLE "Sehnsucht (Schiller), D. 636b"
    PERFORMER "Christa Ludwig (mezzo-soprano), Irwin Gage (piano)"
    REM DATE 1974
    INDEX 00 07:03:08
    INDEX 01 07:06:08
    TRACK 04 AUDIO
    TITLE "Daß sie hier gewesen! (Rückert), D. 775"
    PERFORMER "Christa Ludwig (mezzo-soprano), Irwin Gage (piano)"
    REM DATE 1974
    INDEX 00 11:35:58
    INDEX 01 11:39:58
    TRACK 05 AUDIO
    TITLE "Lied der Mignon «Heiss mich nicht reden» (Goethe), D. 877 Nr. 2"
    PERFORMER "Christa Ludwig (mezzo-soprano), Irwin Gage (piano)"
    REM DATE 1974
    INDEX 00 14:06:08
    INDEX 01 14:11:08
    TRACK 06 AUDIO
    TITLE "Lied der Mignon «So lasst mich scheinen» (Goethe), D. 877 Nr. 3"
    PERFORMER "Christa Ludwig (mezzo-soprano), Irwin Gage (piano)"
    REM DATE 1974
    INDEX 00 17:09:33
    INDEX 01 17:14:08
    TRACK 07 AUDIO
    TITLE "Ständchen («Zögernd leise») (Grillparzer), D. 921"
    PERFORMER "Christa Ludwig (mezzo-soprano), Frauenchor des Österreichischer Rundfunkchor, Irwin Gage (piano)"
    REM DATE 1974
    INDEX 00 20:23:33
    INDEX 01 20:28:08
    TRACK 08 AUDIO
    TITLE "Der Zwerg (Collin), D. 771"
    PERFORMER "Christa Ludwig (mezzo-soprano), Irwin Gage (piano)"
    REM DATE 1974
    INDEX 00 25:52:33
    INDEX 01 25:56:58
    TRACK 09 AUDIO
    TITLE "Bertas Lied in der Nacht (Grillparzer), D. 653"
    PERFORMER "Christa Ludwig (mezzo-soprano), Irwin Gage (piano)"
    REM DATE 1974
    INDEX 00 31:36:58
    INDEX 01 31:41:58
    TRACK 10 AUDIO
    TITLE "Lilla an die Morgenröte (anonymous), D. 273"
    PERFORMER "Christa Ludwig (mezzo-soprano), Irwin Gage (piano)"
    REM DATE 1974
    INDEX 00 35:33:58
    INDEX 01 35:37:58
    TRACK 11 AUDIO
    TITLE "Die Liebe (Freudvoll und leidvoll) (Klärchens Lied) (Goethe), D. 210"
    PERFORMER "Christa Ludwig (mezzo-soprano), Irwin Gage (piano)"
    REM DATE 1974
    INDEX 00 36:37:58
    INDEX 01 36:41:58
    TRACK 12 AUDIO
    TITLE "Das Mädchen (Schlegel), D. 652"
    PERFORMER "Christa Ludwig (mezzo-soprano), Irwin Gage (piano)"
    REM DATE 1974
    INDEX 00 38:04:08
    INDEX 01 38:08:08
    TRACK 13 AUDIO
    TITLE "An den Mond (Goethe), D. 296"
    PERFORMER "Christa Ludwig (mezzo-soprano), Irwin Gage (piano)"
    REM DATE 1974
    INDEX 00 40:10:08
    INDEX 01 40:14:08
    TRACK 14 AUDIO
    TITLE "Lied der Anne Lyle (MacDonald / S. May?), D. 830"
    PERFORMER "Christa Ludwig (mezzo-soprano), Irwin Gage (piano)"
    REM DATE 1974
    INDEX 00 44:59:08
    INDEX 01 45:04:08
    -
    Franz Schubert — каталог раздач на rutracker.orgВсе мои раздачи / All my releases



  • Показать сообщения:    

    Текущее время: 03-Дек 22:46

    Часовой пояс: UTC + 3


    Вы не можете начинать темы
    Вы не можете отвечать на сообщения
    Вы не можете редактировать свои сообщения
    Вы не можете удалять свои сообщения
    Вы не можете голосовать в опросах
    Вы не можете прикреплять файлы к сообщениям
    Вы не можете скачивать файлы