(Classical, sacred) German Church Cantatas and Arias: Dietrich Buxtehude, Johann Christoph Bach, Georg Philipp Telemann - René Jacobs, The Kuijken Consort, The Parnassus Ensemble - 2006, FLAC (image+.cue) lossless


 

[Цитировать]

German Church Cantatas and Arias: Dietrich Buxtehude, Johann Christoph Bach, Georg Philipp Telemann - René Jacobs, The Kuijken Consort, The Parnassus Ensemble
Жанр: Classical, sacred
Страна-производитель диска: Belgium
Год издания диска: 2006
Издатель (лейбл): Accent
Номер по каталогу: ACC 10012
Дата записи: 1979,1981
Аудиокодек: FLAC
Тип рипа: image+.cue
Битрейт аудио: lossless
Продолжительность: 55:11
Источник: собственный рип
Наличие сканов в содержимом раздачи: да
Треклист:
Dietrich Buxtehude (1637-1707)
[1] Aria 'Muss der Tod denn nun doch trennen'
[2] Cantata 'Jubilate Domino'
Johann Christoph Bach (1642-1703)
[3] Aria 'Ach, dass ich Wassers g'nug hatte'
Georg Philipp Telemann (1681-1757)
[4]-[13] Cantata 'Ach Herr, strafe mich nicht'
[14]-[16] Cantata 'Ihr Völker, hört'
Исполнители:
René Jacobs countertenor
The Kuijken Consort
The Parnassus Ensemble

Лог создания рипа

Exact Audio Copy V1.0 beta 3 from 29. August 2011
EAC extraction logfile from 1. October 2013, 18:49
René Jacobs, Kuijken Consort, Parnassus Ensemble / German Church Cantatas and Arias
Used drive : HL-DT-STDVDRRW GWA-4164B Adapter: 5 ID: 0
Read mode : Secure
Utilize accurate stream : Yes
Defeat audio cache : Yes
Make use of C2 pointers : No
Read offset correction : 102
Overread into Lead-In and Lead-Out : No
Fill up missing offset samples with silence : Yes
Delete leading and trailing silent blocks : No
Null samples used in CRC calculations : Yes
Used interface : Native Win32 interface for Win NT & 2000
Used output format : User Defined Encoder
Selected bitrate : 896 kBit/s
Quality : High
Add ID3 tag : No
Command line compressor : C:\Program Files\Exact Audio Copy\FLAC\FLAC.EXE
Additional command line options : -V -8 %source%
TOC of the extracted CD
Track | Start | Length | Start sector | End sector
---------------------------------------------------------
1 | 0:00.32 | 6:10.00 | 32 | 27781
2 | 6:10.32 | 8:11.00 | 27782 | 64606
3 | 14:21.32 | 7:53.13 | 64607 | 100094
4 | 22:14.45 | 5:06.25 | 100095 | 123069
5 | 27:20.70 | 1:42.17 | 123070 | 130736
6 | 29:03.12 | 0:53.08 | 130737 | 134719
7 | 29:56.20 | 1:16.35 | 134720 | 140454
8 | 31:12.55 | 2:01.52 | 140455 | 149581
9 | 33:14.32 | 4:11.05 | 149582 | 168411
10 | 37:25.37 | 1:24.10 | 168412 | 174721
11 | 38:49.47 | 0:44.73 | 174722 | 178094
12 | 39:34.45 | 0:59.72 | 178095 | 182591
13 | 40:34.42 | 1:48.65 | 182592 | 190756
14 | 42:23.32 | 5:20.63 | 190757 | 214819
15 | 47:44.20 | 3:33.50 | 214820 | 230844
16 | 51:17.70 | 3:53.00 | 230845 | 248319
Range status and errors
Selected range
Filename D:\temp\Music\German Church Cantatas and Arias\German Church Cantatas and Arias.wav
Peak level 82.1 %
Extraction speed 2.6 X
Range quality 100.0 %
Test CRC E0DFCDE0
Copy CRC E0DFCDE0
Copy OK
No errors occurred
AccurateRip summary
Track 1 cannot be verified as accurate (confidence 2) [59EF551A], AccurateRip returned [F8F2C18F] (AR v2)
Track 2 cannot be verified as accurate (confidence 2) [345FBE26], AccurateRip returned [41D5649A] (AR v2)
Track 3 cannot be verified as accurate (confidence 2) [2A754A7B], AccurateRip returned [FDE488A4] (AR v2)
Track 4 cannot be verified as accurate (confidence 2) [8F80FD70], AccurateRip returned [44B03A26] (AR v2)
Track 5 cannot be verified as accurate (confidence 2) [A4135541], AccurateRip returned [C9E8E3B9] (AR v2)
Track 6 cannot be verified as accurate (confidence 2) [7D9196E4], AccurateRip returned [65014262] (AR v2)
Track 7 cannot be verified as accurate (confidence 2) [456C0B5C], AccurateRip returned [9B176842] (AR v2)
Track 8 cannot be verified as accurate (confidence 2) [10564DF0], AccurateRip returned [AE1D75B7] (AR v2)
Track 9 cannot be verified as accurate (confidence 2) [52E61F65], AccurateRip returned [8F932340] (AR v2)
Track 10 cannot be verified as accurate (confidence 2) [ED87AF5C], AccurateRip returned [1AFBF33D] (AR v2)
Track 11 cannot be verified as accurate (confidence 2) [5657DCEE], AccurateRip returned [BC7B521D] (AR v2)
Track 12 cannot be verified as accurate (confidence 2) [9D15B405], AccurateRip returned [58BD7195] (AR v2)
Track 13 cannot be verified as accurate (confidence 2) [3F8B3707], AccurateRip returned [066EBE11] (AR v2)
Track 14 cannot be verified as accurate (confidence 2) [35F4DC67], AccurateRip returned [88AAA94E] (AR v2)
Track 15 cannot be verified as accurate (confidence 2) [0C208FA4], AccurateRip returned [41DFECDE] (AR v2)
Track 16 cannot be verified as accurate (confidence 2) [7797C253], AccurateRip returned [A429B24C] (AR v2)
No tracks could be verified as accurate
You may have a different pressing from the one(s) in the database
End of status report
==== Log checksum 457A502E3A75D235AC2BE8AADBB80008CA0532E3DD4EE212473BF310EE5DA303 ====



Показать сообщения:    

Текущее время: 09-Дек 12:46

Часовой пояс: UTC + 3


Вы не можете начинать темы
Вы не можете отвечать на сообщения
Вы не можете редактировать свои сообщения
Вы не можете удалять свои сообщения
Вы не можете голосовать в опросах
Вы не можете прикреплять файлы к сообщениям
Вы не можете скачивать файлы