(Classical, Flute Concerto) Sharon Bezaly, Tapiola Sinfonietta & Jean-Jacques Kantorow - Aperitif: A French Collection (Gounod, Devienne, Saint-Saens, Faure) - 2002, FLAC (image+.cue) lossless


Статистика раздачи [Обновить пиров]
Размер:  201 MB   |    Зарегистрирован:  8 месяцев 17 дней   |    Скачан:  0 раз

Полного источника не было: Никогда

 
   
 
 
 

[Цитировать]

Aperitif: A French Collection
Жанр: Classical
Страна-производитель диска: Austria
Год издания диска: 2002
Издатель (лейбл): BIS
Номер по каталогу: BIS-CD-1359
Дата записи: 2002
Аудиокодек: FLAC
Тип рипа: image+.cue
Битрейт аудио: lossless
Продолжительность: 53:07
Источник: скачано с avaxhome
Наличие сканов в содержимом раздачи: да
Треклист:
01 Charles-François Gounod: Concertino for Flute and Small Orchestra 5:12
François Devienne: Concerto for Flute and Orchestra #7 in E minor
02 - I. Allegro 7:56
03 - II. Adagio 5:06
04 - III. Rondo 5:01
Camille Saint-Saëns:
05 Romance in D flat major, Op. 37 6:18
06 Airs de ballet d'Ascanio - Poco adagio 2:15
07 Airs de ballet d'Ascanio - Variation de l'Amour: Andantino 1:30
08 Tarantelle in A minor, Op. 6 6:26
09 Odelette in D major, Op. 162 7:44
Gabriel Fauré: Fantaisie
10 - Andantino 2:06
11 - Allegro 3:34
Исполнители:
Sharon Bezaly, Flute (Muramatsu 24k Gold Model, No. 60600 with B foot joint, specially built)
Tapiola Sinfonietta - Jean-Jacques Kantorow
track 08 - Harri Mäki, Clarinet (Buffet Crampon Prestige in A)

Лог создания рипа

Exact Audio Copy V1.0 beta 3 from 29. August 2011
EAC extraction logfile from 23. April 2013, 17:26
Sharon Bezaly / Aperitif - A french collection
Used drive : PIONEER BD-RW BDR-206 Adapter: 0 ID: 2
Read mode : Secure
Utilize accurate stream : Yes
Defeat audio cache : Yes
Make use of C2 pointers : No
Read offset correction : 667
Overread into Lead-In and Lead-Out : No
Fill up missing offset samples with silence : Yes
Delete leading and trailing silent blocks : No
Null samples used in CRC calculations : Yes
Used interface : Native Win32 interface for Win NT & 2000
Used output format : User Defined Encoder
Selected bitrate : 1024 kBit/s
Quality : High
Add ID3 tag : Yes
Command line compressor : C:\Program Files\FLAC\flac.exe
Additional command line options : -5 -T "Artist=%artist%" -T "Title=%title%" -T "Album=%albumtitle%" -T "Date=%year%" -T "Tracknumber=%tracknr%" -T "Genre=%genre%" %source% -o %dest%
TOC of the extracted CD
Track | Start | Length | Start sector | End sector
---------------------------------------------------------
1 | 0:00.00 | 5:11.65 | 0 | 23389
2 | 5:11.65 | 7:56.00 | 23390 | 59089
3 | 13:07.65 | 5:06.22 | 59090 | 82061
4 | 18:14.12 | 5:00.55 | 82062 | 104616
5 | 23:14.67 | 6:18.30 | 104617 | 132996
6 | 29:33.22 | 2:14.55 | 132997 | 143101
7 | 31:48.02 | 1:30.15 | 143102 | 149866
8 | 33:18.17 | 6:25.40 | 149867 | 178781
9 | 39:43.57 | 7:43.48 | 178782 | 213554
10 | 47:27.30 | 2:06.07 | 213555 | 223011
11 | 49:33.37 | 3:33.50 | 223012 | 239036
Range status and errors
Selected range
Filename F:\=== VINYL RIPS ===\=== EAC===\X FRESH RIP\Sharon Bezaly - Aperitif - A french collection.wav
Peak level 100.0 %
Extraction speed 1.7 X
Range quality 100.0 %
Copy CRC 90AE6317
Copy OK
No errors occurred
AccurateRip summary
Track 1 accurately ripped (confidence 1) [9C77FA9F] (AR v1)
Track 2 accurately ripped (confidence 1) [AE28A21C] (AR v1)
Track 3 accurately ripped (confidence 1) [B1D675FF] (AR v1)
Track 4 accurately ripped (confidence 1) [E4B5D5C9] (AR v1)
Track 5 accurately ripped (confidence 1) [88EA1C32] (AR v1)
Track 6 accurately ripped (confidence 1) [C0C5851C] (AR v1)
Track 7 accurately ripped (confidence 1) [4558395B] (AR v1)
Track 8 accurately ripped (confidence 1) [11A2B44B] (AR v1)
Track 9 accurately ripped (confidence 1) [46AC31EC] (AR v1)
Track 10 accurately ripped (confidence 1) [A8BAF5A1] (AR v1)
Track 11 accurately ripped (confidence 1) [C3783094] (AR v1)
All tracks accurately ripped
End of status report
---- CUETools DB Plugin V2.1.3
[CTDB TOCID: kLFpbNjTwtxV4dr6p47gN3mKPY4-] disk not present in database, Submit result: kLFpbNjTwtxV4dr6p47gN3mKPY4- has been uploaded
==== Log checksum C78201CA6FD861682762DACBE3E8E5BE96CE9CFF3AA162834C5A888DBA532D27 ====

Лог проверки качества

AUDIOCHECKER v2.0 beta (build 457) - by Dester - opdester@freemail.hu
~~~~~~~~~~~~~~~~~~~~~~~~~~~~~~~~~~
-=== DO NOT EDIT THIS FILE! ===-
Path: ...\Sharon Bezaly - Aperitif - A French Collection [BIS BIS-CD-1359] {Sweden 2002}
1 -=- Sharon Bezaly - Aperitif - A french collection.flac -=- CDDA (100%)
214346276
[teatrix.ru].t17835.torrent 
Торрент: Зарегистрирован [ 2016-03-17 00:49 ] · 844B76861990FC0895DCB183761E5EA96CB628E0

Скачать .torrent

Скачать

17 KB

Статус: проверено
Скачан: 0 раз
Размер: 201 MB
terms.php



Быстрый ответ

Имя:

      
Для отправки сообщений необходимо включить JavaScript
Показать сообщения:    

Текущее время: 03-Дек 07:40

Часовой пояс: UTC + 3


Вы можете начинать темы
Вы можете отвечать на сообщения
Вы не можете редактировать свои сообщения
Вы не можете удалять свои сообщения
Вы не можете голосовать в опросах
Вы не можете прикреплять файлы к сообщениям
Вы можете скачивать файлы